img image001 image001 image001 image001 image001 image001 image001 image001 image001 image001 image001 image001 image001 image001 image001

Planets Sun Sun Sun
Статистика раздачи
Автор: Nickolas3434 | Размер: 2.19 ГБ | Добавлен: 26 ноя 2017
Раздают: 4    Качают: 5
Скачать торрент
Скачать торрент
Описание торрента

СообщениеДобавлено: 26 ноя 2017 

Информация о фильме
Название: Детские игры: Трилогия
Оригинальное название: Child's Play: The Trilogy
Год выпуска: (1988-1991)
Жанр: Ужасы, триллер
Выпущено: США, United Artists, Universal Pictures, Midwinter Productions Inc., Castel Film Romania, David Kirschner Productions, Rogue Pictures
Режиссер: Том Холланд (I), Джон Лафия, Джек Бендер, Ронни Ю, Дон Манчини
В ролях: Кэтрин Хикс, Крис Сарандон, Алекс Винсент, Брэд Дуриф, Дайна Мэнофф, Томми Свердлоу, Джек Колвин, Нил Джунтоли, Хуан Рамирес, Алан Уайлдер, Дженни Агаттер, Геррит Грэм, Кристин Элиз, Грэйс Забриски, Питер Хэскелл, Бет Грант, Грег Джерманн, Рэймонд Сингер, Джастин Уэйлин, Перри Ривз, Джереми Силверс, Трэвис Файн, Дин Джекобсон, Дэкин Мэтьюз, Эндрю Робинсон, Бёрк Бирнс
О фильме :
Когда душа убийцы вселяется в невинно выглядящую куклу, никто, кроме маленького Энди, не осознает, что Чаки виновен в захлестнувшей город волне страшных убийств. Но настоящий ужас наступает тогда, когда дух злодея вознамеривается переселиться из куклы в живого человека.

Информация о фильме
Название: Детские игры
Оригинальное название: Child's Play
Год выхода: 1988
Жанр: Ужасы, триллер
Режиссер: Том Холланд
В ролях: Кэтрин Хикс, Крис Сарандон, Алекс Винсент, Брэд Дуриф, Дайна Мэнофф, Томми Свердлоу, Джек Колвин, Нил Джунтоли, Хуан Рамирес, Алан Уайлдер
О фильме:
Никто не поверил шестилетнему Энди Барклаю, когда он сказал, что его новая кукла по имени Чаки — живая. А когда няня мальчика погибла, выпав из окна, он сказал своей матери и следователю чистую правду: «Это сделал Чаки». Когда душа убийцы вселяется в невинно выглядящую куклу, никто, кроме маленького Энди, не осознаёт, что Чаки виновен в захлестнувшей город волне страшных убийств. Но настоящий ужас наступает тогда, когда дух злодея вознамеривается переселиться из куклы в живого человека.

Страна: США
Студия: United Artists
Продолжительность: 01:27:08
Перевод: Профессиональный (многоголосый, закадровый) СТС + Профессиональный (одноголосый, закадровый) Tycoon (Отдельно)
Файл
Формат: MKV
Качество: HDRip-AVC
Видео: MPEG-4 AVC, 752x408, ~ 1120 Кбит/с
Аудио: AAC-LC, 2 ch, ~ 76 Кбит/с
Субтитры: Русские, английские
Общее
Уникальный идентификатор : 183435847350898722149989128659752502690 (0x8A007589759C1579974643308028C5A2)
Полное имя : D:MOVIESChild's Play The TrilogyChild’s Play.1988.ExKinoRay.mkv
Формат : Matroska
Версия формата : Version 4 / Version 2
Размер файла : 746 Мбайт
Продолжительность : 1 ч. 27 м.
Общий поток : 1197 Кбит/сек
Дата кодирования : UTC 2017-11-26 05:22:24
Программа кодирования : mkvmerge v15.0.0 ('Duel with the Devil') 64-bit
Библиотека кодирования : libebml v1.3.5 + libmatroska v1.4.5
Видео
Идентификатор : 1
Формат : AVC
Формат/Информация : Advanced Video Codec
Профиль формата : High@L4.1
Параметр CABAC формата : Да
Параметр RefFrames формата : 10 кадров
Идентификатор кодека : V_MPEG4/ISO/AVC
Продолжительность : 1 ч. 27 м.
Битрейт : 1120 Кбит/сек
Ширина : 752 пикселя
Высота : 408 пикселей
Соотношение сторон : 1,85:1
Режим частоты кадров : Постоянный
Частота кадров : 23,976 (24000/1001) кадра/сек
Цветовое пространство : YUV
Субдискретизация насыщенности : 4:2:0
Битовая глубина : 8 бит
Тип развёртки : Прогрессивная
Бит/(Пиксели*Кадры) : 0.152
Размер потока : 697 Мбайт (93%)
Библиотека кодирования : x264 core 152 r2851kMod ba24899
Настройки программы : cabac=1 / ref=10 / deblock=1:-3:-2 / analyse=0x3:0x133 / me=umh / subme=11 / psy=1 / fade_compensate=0.00 / psy_rd=1.00:0.20 / mixed_ref=1 / me_range=32 / chroma_me=1 / trellis=2 / 8x8dct=1 / cqm=0 / deadzone=21,11 / fast_pskip=0 / chroma_qp_offset=-3 / threads=6 / lookahead_threads=1 / sliced_threads=0 / nr=0 / decimate=0 / interlaced=0 / bluray_compat=0 / constrained_intra=0 / bframes=10 / b_pyramid=2 / b_adapt=2 / b_bias=0 / direct=3 / weightb=1 / open_gop=0 / weightp=2 / keyint=240 / keyint_min=23 / scenecut=40 / intra_refresh=0 / rc_lookahead=40 / rc=2pass / mbtree=1 / bitrate=1120 / ratetol=1.0 / qcomp=0.60 / qpmin=0 / qpmax=69 / qpstep=4 / cplxblur=20.0 / qblur=0.5 / vbv_maxrate=50000 / vbv_bufsize=62500 / nal_hrd=none / filler=0 / ip_ratio=1.40 / aq=3:1.00
Default : Да
Forced : Нет
Аудио
Идентификатор : 2
Формат : AAC
Формат/Информация : Advanced Audio Codec
Профиль формата : LC
Идентификатор кодека : A_AAC
Продолжительность : 1 ч. 27 м.
Битрейт : 76,0 Кбит/сек
Каналы : 2 канала
Расположение каналов : Front: L R
Частота : 48,0 КГц
Частота кадров : 46,875 кадров/сек (1024 SPF)
Метод сжатия : С потерями
Задержка видео : 9 мс.
Размер потока : 47,4 Мбайт (6%)
Язык : Russian
Default : Да
Forced : Нет
Текст #1
Идентификатор : 3
Формат : UTF-8
Идентификатор кодека : S_TEXT/UTF8
Идентификатор кодека/Информация : UTF-8 Plain Text
Продолжительность : 1 ч. 22 м.
Битрейт : 57 бит/сек
ElementCount : 617
Размер потока : 34,9 Кбайт (0%)
Заголовок : Russian
Язык : Russian
Default : Нет
Forced : Нет
Текст #2
Идентификатор : 4
Формат : UTF-8
Идентификатор кодека : S_TEXT/UTF8
Идентификатор кодека/Информация : UTF-8 Plain Text
Продолжительность : 1 ч. 22 м.
Битрейт : 43 бит/сек
ElementCount : 919
Размер потока : 26,5 Кбайт (0%)
Заголовок : English
Язык : English
Default : Нет
Forced : Нет
Меню
00:00:00.000 : en:Logos/Title/Credits
00:04:42.740 : en:Fiery Transference
00:06:19.587 : en:"Good Guy"/Breakfast
00:08:42.230 : en:Wake Up for Presents
00:11:08.667 : en:Buying a "Hot" Doll
00:12:24.326 : en:Bossy Boss
00:13:22.468 : en:"Friend to the End"
00:14:22.319 : en:News Obsession
00:18:41.078 : en:"Night Willies"
00:22:45.489 : en:Night Flight
00:23:46.341 : en:A Killer's Footprints
00:28:30.208 : en:Murder Weapon
00:29:38.276 : en:"Chucky's Alive!"
00:33:07.068 : en:School Dropouts
00:35:53.568 : en:A Gassed Rat
00:39:06.552 : en:Little Liar
00:41:09.967 : en:Not Battery Powered
00:43:47.916 : en:Talk or Burn/Escape
00:46:49.431 : en:Doll Bite
00:48:14.391 : en:A Bad Part of Town
00:50:58.221 : en:Bad Memories
00:52:10.627 : en:"Sane & Rational"
00:53:29.164 : en:Terrifying Ride
00:56:01.024 : en:"Hi, Mikey!"
00:57:21.521 : en:New Evidence
00:59:20.431 : en:"a Date with Death!"
01:02:17.483 : en:"Must Save the Boy!"
01:03:31.432 : en:"Don't Leave Me!"
01:04:34.287 : en:Electrified Exit
01:07:37.219 : en:Where's Andy?
01:08:31.357 : en:"Batter Up!"
01:11:35.791 : en:Evil Incarnation
01:13:29.905 : en:"the End, Friend!"
01:16:21.326 : en:Back & Really Burned
01:19:51.328 : en:A New Believer
01:23:50.275 : en:End Credits



Информация о фильме
Название: Детские игры 2
Оригинальное название: Child's Play 2
Год выхода: 1990
Жанр: Ужасы, триллер
Режиссер: Джон Лафия
В ролях: Алекс Винсент, Дженни Агаттер, Геррит Грэм, Кристин Элиз, Брэд Дуриф, Грейс Забриски, Питер Хэскелл, Бет Грант, Грег Джерманн, Рэймонд Сингер
О фильме:
Энди — мальчик, в которого Чаки пытался вселиться в первой серии — попадает к приёмным родителям (родная мать мальчика была признана душевнобольной). Ему до сих пор снятся кошмары о Чаки. Между тем, фирма-производитель рыжих игрушечных пупсов, дабы избежать дурной репутации (в силу событий, произошедших в фильме-оригинале), восстанавливает куклу Чаки из её «останков», найденных на «месте происшествия». Так фирма пытается доказать, что реальной опасности кукла не имеет. Но получилось наоборот… Теперь Энди вновь предстоит столкнуться с маленьким, но очень опасным, пластмассовым монстром, который все ещё намерен овладеть телом мальчика…

Страна: США
Студия: Universal Pictures
Продолжительность: 01:23:50
Перевод: Профессиональный (многоголосый, закадровый) Пятница + Профессиональный (одноголосый, закадровый) Tycoon (Отдельно)
Файл
Формат: MKV
Качество: HDRip-AVC
Видео: MPEG-4 AVC, 752x408, ~ 1167 Кбит/с
Аудио: AAC-LC, 2 ch, ~ 76 Кбит/с
Субтитры: Русские, английские
Общее
Уникальный идентификатор : 202554223514350938126389415129046474370 (0x98628641E2CBB0E8804B8AEAEC725E82)
Полное имя : D:MOVIESChild's Play The TrilogyChild’s Play 2.1990.ExKinoRay.mkv
Формат : Matroska
Версия формата : Version 4 / Version 2
Размер файла : 746 Мбайт
Продолжительность : 1 ч. 23 м.
Общий поток : 1244 Кбит/сек
Дата кодирования : UTC 2017-11-26 05:31:14
Программа кодирования : mkvmerge v15.0.0 ('Duel with the Devil') 64-bit
Библиотека кодирования : libebml v1.3.5 + libmatroska v1.4.5
Видео
Идентификатор : 1
Формат : AVC
Формат/Информация : Advanced Video Codec
Профиль формата : High@L4.1
Параметр CABAC формата : Да
Параметр RefFrames формата : 10 кадров
Идентификатор кодека : V_MPEG4/ISO/AVC
Продолжительность : 1 ч. 23 м.
Битрейт : 1167 Кбит/сек
Ширина : 752 пикселя
Высота : 408 пикселей
Соотношение сторон : 1,85:1
Режим частоты кадров : Постоянный
Частота кадров : 23,976 (24000/1001) кадра/сек
Цветовое пространство : YUV
Субдискретизация насыщенности : 4:2:0
Битовая глубина : 8 бит
Тип развёртки : Прогрессивная
Бит/(Пиксели*Кадры) : 0.159
Размер потока : 699 Мбайт (94%)
Библиотека кодирования : x264 core 152 r2851kMod ba24899
Настройки программы : cabac=1 / ref=10 / deblock=1:-3:-2 / analyse=0x3:0x133 / me=umh / subme=11 / psy=1 / fade_compensate=0.00 / psy_rd=1.00:0.20 / mixed_ref=1 / me_range=32 / chroma_me=1 / trellis=2 / 8x8dct=1 / cqm=0 / deadzone=21,11 / fast_pskip=0 / chroma_qp_offset=-3 / threads=6 / lookahead_threads=1 / sliced_threads=0 / nr=0 / decimate=0 / interlaced=0 / bluray_compat=0 / constrained_intra=0 / bframes=10 / b_pyramid=2 / b_adapt=2 / b_bias=0 / direct=3 / weightb=1 / open_gop=0 / weightp=2 / keyint=240 / keyint_min=23 / scenecut=40 / intra_refresh=0 / rc_lookahead=40 / rc=2pass / mbtree=1 / bitrate=1167 / ratetol=1.0 / qcomp=0.60 / qpmin=0 / qpmax=69 / qpstep=4 / cplxblur=20.0 / qblur=0.5 / vbv_maxrate=50000 / vbv_bufsize=62500 / nal_hrd=none / filler=0 / ip_ratio=1.40 / aq=3:1.00
Default : Да
Forced : Нет
Аудио
Идентификатор : 2
Формат : AAC
Формат/Информация : Advanced Audio Codec
Профиль формата : LC
Идентификатор кодека : A_AAC
Продолжительность : 1 ч. 23 м.
Битрейт : 76,0 Кбит/сек
Каналы : 2 канала
Расположение каналов : Front: L R
Частота : 48,0 КГц
Частота кадров : 46,875 кадров/сек (1024 SPF)
Метод сжатия : С потерями
Задержка видео : 9 мс.
Размер потока : 45,6 Мбайт (6%)
Язык : Russian
Default : Да
Forced : Нет
Текст #1
Идентификатор : 3
Формат : UTF-8
Идентификатор кодека : S_TEXT/UTF8
Идентификатор кодека/Информация : UTF-8 Plain Text
Продолжительность : 1 ч. 20 м.
Битрейт : 54 бит/сек
ElementCount : 625
Размер потока : 32,1 Кбайт (0%)
Заголовок : Russian
Язык : Russian
Default : Нет
Forced : Нет
Текст #2
Идентификатор : 4
Формат : UTF-8
Идентификатор кодека : S_TEXT/UTF8
Идентификатор кодека/Информация : UTF-8 Plain Text
Продолжительность : 1 ч. 18 м.
Битрейт : 38 бит/сек
ElementCount : 802
Размер потока : 22,1 Кбайт (0%)
Заголовок : English
Язык : English
Default : Нет
Forced : Нет
Меню
00:00:00.000 : en:Main Titles
00:03:49.770 : en:Good News?
00:04:58.964 : en:A Rebuilt Chucky
00:06:20.088 : en:Andy's Therapy
00:09:36.158 : en:The Foster Family
00:14:59.398 : en:Rough Handling
00:20:09.625 : en:A Stormy Night
00:26:00.808 : en:"Tommy" And Andy
00:29:46.326 : en:Friends To The End
00:34:05.000 : en:Miss Kettlewell
00:42:35.594 : en:In The Basement
00:48:27.777 : en:Andy's Rejection
00:50:35.782 : en:Under The Swing
00:59:53.255 : en:Fire Drill
01:04:52.220 : en:At The Factory
01:15:04.917 : en:Duck!
01:16:58.113 : en:Kyle!
01:20:19.939 : en:End Titles



Информация о фильме
Название: Детские игры 3
Оригинальное название: Child's Play 3
Год выхода: 1991
Жанр: ужасы
Режиссер: Джек Бендер
В ролях: Джастин Уэйлин, Перри Ривз, Джереми Силверс, Трэвис Файн, Дин Джекобсон, Брэд Дуриф, Питер Хэскелл, Дэкин Мэтьюз, Эндрю Робинсон, Бёрк Бирнс
О фильме:
Энди уже 16 лет, и он проходит обучение в Кентской военной школе. А бизнесмен Питер Хэскелл возобновляет производство кукол. И первым с конвейера сходит незабвенный Чаки, одержимый духом мертвого убийцы. Он до сих пор не избавился от мыслей перебраться в тело мальчишки и покинуть ненавистное ему обличие веселой детской игрушки.

Страна: Великобритания, США
Студия: Universal Pictures
Продолжительность: 01:29:41
Перевод: Профессиональный (многоголосый, закадровый) Пятница + Профессиональный (одноголосый, закадровый) Tycoon (Отдельно)
Файл
Формат: MKV
Качество: HDRip-AVC
Видео: MPEG-4 AVC, 752x408, ~ 1085 Кбит/с
Аудио: AAC-LC, 2 ch, ~ 76 Кбит/с
Субтитры: Русские, английские



Релиз от:
[/spoiler]

   Похожие торренты   Торрент   Размер 
В этой теме нет новых непрочитанных сообщений. Детские игры / Child's Play (1988) BDRip 720p от k.e.n & MegaPeer | P, P2, A

12 | 2

4.88 ГБ

В этой теме нет новых непрочитанных сообщений. Детские игры 3 / Child's Play 3 (1991) BDRip 720p от k.e.n & MegaPeer | P, P1, A

9 | 5

4.37 ГБ

В этой теме нет новых непрочитанных сообщений. Детские игры: Коллекция /Child's Play: Collection (1988-2017) BDRip-HEVC 1080p | D, P, P2, A

0 | 1

38.74 ГБ

В этой теме нет новых непрочитанных сообщений. Детские игры / Child's Play (Ларс Клевберг) [2019, ужасы, WEBDLRip-AVC] DUB

2 | 0

1.46 ГБ

В этой теме нет новых непрочитанных сообщений. Детские игры 2 / Child's Play 2 (1990) BDRip 720p от k.e.n & MegaPeer | P1, A

5 | 4

4.37 ГБ

В этой теме нет новых непрочитанных сообщений. Детские игры / Child's Play (Ларс Клевберг) [2019, ужасы, WEBDLRip] DUB

0 | 0

1.46 ГБ

В этой теме нет новых непрочитанных сообщений. Голый пистолет: Трилогия / The Naked Gun: Trilogy (1988-1994) HDRip-AVC | НТВ+

78 | 5

2.19 ГБ




Вы не можете начинать темы
Вы не можете отвечать на сообщения
Вы не можете редактировать свои сообщения
Вы не можете удалять свои сообщения
Вы не можете добавлять вложения

Перейти:  
Контактная информация: rstracker[пёсик]yandex.ru
 Вход
ppkBB3cker v.2 © 2008-2014 @ PPK
[ Time : 0.025s | 18 Queries | GZIP : Off ]

cron