img image001 image001 image001 image001 image001 image001 image001 image001 image001 image001 image001 image001 image001 image001 image001

Planets Sun Sun Sun

COVID-19 - Последняя информация о коронавирусе на сайте Минздрава


Статистика раздачи
Автор: Nickolas3434 | Размер: 46.91 ГБ | Добавлен: 30 ноя 2017
Раздают: 103    Качают: 53
Скачать торрент
Скачать торрент
Описание торрента

СообщениеДобавлено: 30 ноя 2017 

Информация о фильме
[b]Название: [/b]Гарри Поттер: Коллекция
[b]Оригинальное название: [/b]Harry Potter: Collection
[b]Год выхода: [/b]2001, 2002, 2004, 2005, 2007, 2009, 2010, 2011
[b]Жанр:[/b] фэнтези, приключения, семейный
[b]Продолжительность:[/b]02:38:50 | 02:54:25 | 02:21:42 | 02:37:05 | 02:18:14 | 02:33:31 | 02:26:05 | 02:10:27
[b]Режиссер: [/b]Крис Коламбус, Альфонсо Куарон, Майк Ньюэлл, Дэвид Йэтс
[spoiler="Гарри Поттер и философский камень / Harry Potter and the Sorcerer's Stone (2001) | D | Extended Edition"][img]http://s019.radikal.ru/i613/1711/ad/1a5b9aea234c.jpg[/img]
Информация о фильме
[b]Название: [/b]Гарри Поттер и философский камень [Расширенная версия]
[b]Оригинальное название: [/b]Harry Potter and the Sorcerer's Stone [Extended Edition]
[b]Год выхода: [/b]2001
[b]Жанр: [/b] фэнтези, приключения, семейный
[b]Режиссер: [/b]Крис Коламбус
[b]В ролях: [/b]Дэниэл Рэдклифф, Руперт Гринт, Эмма Уотсон, Ричард Харрис, Алан Рикман, Мэгги Смит, Робби Колтрейн, Том Фелтон, Мэттью Льюис, Иэн Харт
[b]О фильме:[/b]
Обычный лондонский мальчик Гарри Поттер на 11-м году жизни узнает, что он — осиротевший сын двух могущественных волшебников, и сам обладает магической силой. В Хогвартской школе чародейства и волшебства Гарри попадает в водоворот невероятных приключений. Он изучает квиддич — спорт высшего пилотажа, играет в захватывающую игру живыми шахматными фигурами, встречается с Темным Волшебником, который хочет его уничтожить.
[url=http://www.imdb.com/title/tt0241527/][img]http://live-rutor.org/parse/s.rutor.org/imdb/pic/0241527.gif[/img][/url] [url=http://www.kinopoisk.ru/film/689/][img]http://www.kinopoisk.ru/rating/689.gif[/img][/url]
[b]Страна: [/b]США
[b]Студия: [/b]Warner Bros. Pictures
[b]Продолжительность: [/b]02:38:50
[b]Перевод: [/b]Профессиональный дублированный
Файл
[b]Кодек: [/b]HEVC x265 10 bit
[b]Качество: [/b]BDRip-HEVC 1080p
[b]Видео: [/b]1920x796, 23.976 кадр/сек, 4801 Кбит/сек, (Main 10@L5.1@High) 10bit
[b]Звук: [/b]
[b]Аудио1:[/b] Русская, AC3 448 Кбит/сек, 6 канала(ов),16bit 48,0 КГц
[b]Аудио2:[/b] English, AC3 448 Кбит/сек, 6 канала(ов),16bit 48,0 КГц
[b]Субтитры: [/b]Нет
[b]Навигация по главам: [/b]Есть
[b]Скриншоты:[/b]
[url=http://radikal.ru/fp/abu5hjfg25w94][img]http://s019.radikal.ru/i639/1711/10/25bfdb53a794t.jpg[/img][/url] [url=http://radikal.ru/fp/e21cig8yaexho][img]http://s019.radikal.ru/i600/1711/9e/3e35451c3964t.jpg[/img][/url] [url=http://radikal.ru/fp/hq5a5mmgdikza][img]http://s018.radikal.ru/i500/1711/79/2e1f02254958t.jpg[/img][/url] [url=http://radikal.ru/fp/5iqvjbz5prh5j][img]http://s018.radikal.ru/i522/1711/28/6f197f0cad29t.jpg[/img][/url]
[spoiler="Mediainfo"]General
Unique ID : 235115321845385990569792833660754637385 (0xB0E19059F4DCA200A88384D6B044B249)
Complete name : T:HDFILMSHarry Potter.Collection [HEVC] 10bit1.Harry Potter and the Sorcerer's Stone [Extended Edition] (2001) BDRip 1080p [HEVC] 10bit.mkv
Format : Matroska
Format version : Version 4 / Version 2
File size : 6.32 GiB
Duration : 2 h 38 min
Overall bit rate : 5 699 kb/s
Movie name : rip_by_Cthulhu
Encoded date : UTC 2017-11-06 10:32:54
Writing application : mkvmerge v13.0.0 ('The Juggler') 64bit
Writing library : libebml v1.3.4 + libmatroska v1.4.5
Cover : Yes
Attachments : cover1.jpg
Video
ID : 1
Format : HEVC
Format/Info : High Efficiency Video Coding
Format profile : Main 10@L5.1@High
Codec ID : V_MPEGH/ISO/HEVC
Duration : 2 h 38 min
Bit rate : 4 801 kb/s
Width : 1 920 pixels
Height : 796 pixels
Display aspect ratio : 2.40:1
Frame rate mode : Constant
Frame rate : 23.976 (24000/1001) FPS
Color space : YUV
Chroma subsampling : 4:2:0
Bit depth : 10 bits
Bits/(Pixel*Frame) : 0.131
Stream size : 5.33 GiB (84%)
Writing library : x265 2.5+31-df2de6ea407d:[Windows][GCC 7.1.0][64 bit] 10bit
Encoding settings : cpuid=1050111 / frame-threads=5 / numa-pools=4 / wpp / no-pmode / no-pme / no-psnr / no-ssim / log-level=3 / input-csp=1 / input-res=1920x796 / interlace=0 / total-frames=0 / level-idc=51 / high-tier=1 / uhd-bd=0 / ref=4 / no-allow-non-conformance / no-repeat-headers / annexb / no-aud / no-hrd / info / hash=0 / no-temporal-layers / open-gop / min-keyint=23 / keyint=230 / bframes=10 / b-adapt=2 / b-pyramid / bframe-bias=0 / rc-lookahead=40 / lookahead-slices=5 / scenecut=40 / no-intra-refresh / ctu=64 / min-cu-size=8 / no-rect / no-amp / max-tu-size=32 / tu-inter-depth=3 / tu-intra-depth=3 / limit-tu=0 / rdoq-level=0 / dynamic-rd=0.00 / no-ssim-rd / signhide / no-tskip / nr-intra=0 / nr-inter=0 / no-constrained-intra / strong-intra-smoothing / max-merge=3 / limit-refs=3 / no-limit-modes / me=2 / subme=7 / merange=57 / temporal-mvp / weightp / weightb / no-analyze-src-pics / deblock=-3:-3 / no-sao / no-sao-non-deblock / rd=3 / no-early-skip / rskip / no-fast-intra / no-tskip-fast / no-cu-lossless / no-b-intra / no-splitrd-skip / rdpenalty=0 / psy-rd=1.00 / psy-rdoq=0.00 / no-rd-refine / analysis-reuse-mode=0 / no-lossless / cbqpoffs=0 / crqpoffs=0 / rc=crf / crf=19.0 / qcomp=0.60 / qpstep=4 / stats-write=0 / stats-read=0 / vbv-maxrate=50000 / vbv-bufsize=35714 / vbv-init=0.9 / crf-max=30.0 / crf-min=0.0 / ipratio=1.40 / pbratio=1.30 / aq-mode=1 / aq-strength=1.00 / cutree / zone-count=0 / no-strict-cbr / qg-size=32 / no-rc-grain / qpmax=69 / qpmin=0 / no-const-vbv / sar=1 / overscan=0 / videoformat=5 / range=0 / colorprim=1 / transfer=1 / colormatrix=1 / chromaloc=0 / display-window=0 / max-cll=0,0 / min-luma=0 / max-luma=1023 / log2-max-poc-lsb=8 / vui-timing-info / vui-hrd-info / slices=1 / opt-qp-pps / opt-ref-list-length-pps / no-multi-pass-opt-rps / scenecut-bias=0.05 / no-opt-cu-delta-qp / no-aq-motion / no-hdr / no-hdr-opt / no-dhdr10-opt / analysis-reuse-level=5 / scale-factor=0 / refine-intra=0 / refine-inter=0 / refine-mv=0 / no-limit-sao / ctu-info=0
Language : English
Default : Yes
Forced : No
Color range : Limited
Color primaries : BT.709
Transfer characteristics : BT.709
Matrix coefficients : BT.709
Audio #1
ID : 2
Format : AC-3
Format/Info : Audio Coding 3
Format settings, Endianness : Big
Codec ID : A_AC3
Duration : 2 h 38 min
Bit rate mode : Constant
Bit rate : 448 kb/s
Channel(s) : 6 channels
Channel positions : Front: L C R, Side: L R, LFE
Sampling rate : 48.0 kHz
Frame rate : 31.250 FPS (1536 SPF)
Bit depth : 16 bits
Compression mode : Lossy
Stream size : 509 MiB (8%)
Language : Russian
Service kind : Complete Main
Default : Yes
Forced : No
Audio #2
ID : 3
Format : AC-3
Format/Info : Audio Coding 3
Format settings, Endianness : Big
Codec ID : A_AC3
Duration : 2 h 38 min
Bit rate mode : Constant
Bit rate : 448 kb/s
Channel(s) : 6 channels
Channel positions : Front: L C R, Side: L R, LFE
Sampling rate : 48.0 kHz
Frame rate : 31.250 FPS (1536 SPF)
Bit depth : 16 bits
Compression mode : Lossy
Stream size : 509 MiB (8%)
Language : English
Service kind : Complete Main
Default : No
Forced : No
Menu
00:00:00.000 : :Doorstep Delivery
00:04:05.412 : :Vanishing Glass
00:08:11.449 : :Letters From No One
00:13:41.821 : :Keeper of the Keys
00:19:49.188 : :Diagon Alley
00:23:42.296 : :Gringotts
00:26:40.307 : :Ollivanders
00:30:48.138 : :The Boy Who Lived
00:33:03.857 : :Platform 9 3/4
00:36:04.204 : :Ron and Hermione
00:39:48.261 : :Welcome to Hogwarts
00:43:28.105 : :Sorting Hat
00:48:12.097 : :Nick and Other Residents
00:52:27.686 : :Potions and Parcels
00:58:29.381 : :New Seeker
01:04:20.607 : :Three-Headed Sentinel
01:07:08.942 : :Facts and Feathers
01:11:13.185 : :Mountain Troll
01:17:30.604 : :Quidditch
01:23:59.242 : :Interference Overcome
01:27:35.917 : :Christmas Gift
01:32:13.820 : :Cloaked in Darkness
01:35:25.011 : :Mirror of Erised
01:41:18.155 : :Norbert
01:49:04.079 : :Forbidden Forest
01:55:34.177 : :Up to Something
01:59:50.725 : :Through the Trapdoor
02:04:38.888 : :Wizards' Chess
02:10:13.973 : :Sacrifice Play
02:13:25.289 : :Man with Two Faces
02:17:24.528 : :Magic Touch
02:20:47.981 : :Mark of Love
02:23:58.755 : :House Cup Winner
02:28:13.843 : :Not Really Going Home
02:30:41.699 : :Credits[/spoiler]
[spoiler="Гарри Поттер и тайная комната / Harry Potter and the Chamber of Secrets (2002) | D | Extended Edition"][img]http://s019.radikal.ru/i643/1711/f4/46316fc7585c.jpg[/img]
Информация о фильме
[b]Название: [/b]Гарри Поттер и тайная комната [Расширенная версия]
[b]Оригинальное название: [/b]Harry Potter and the Chamber of Secrets [Extended Edition]
[b]Год выхода: [/b]2002
[b]Жанр: [/b] фэнтези, приключения, семейный
[b]Режиссер: [/b]Крис Коламбус
[b]В ролях: [/b]Дэниэл Рэдклифф, Руперт Гринт, Эмма Уотсон, Том Фелтон, Кеннет Брэна, Бонни Райт, Алан Рикман, Ричард Харрис, Мэгги Смит, Робби Колтрейн
[b]О фильме:[/b]
Гарри Поттер переходит на второй курс Школы чародейства и волшебства Хогвартс. Эльф Добби предупреждает Гарри об опасности, которая поджидает его там, и просит больше не возвращаться в школу. Юный волшебник не следует совету эльфа и становится свидетелем таинственных событий, разворачивающихся в Хогвартсе. Вскоре Гарри и его друзья узнают о существовании Тайной Комнаты и сталкиваются с новыми приключениями, пытаясь победить темные силы.
[url=http://www.imdb.com/title/tt0295297/][img]http://live-rutor.org/parse/s.rutor.org/imdb/pic/0295297.gif[/img][/url] [url=http://www.kinopoisk.ru/film/688/][img]http://www.kinopoisk.ru/rating/688.gif[/img][/url]
[b]Страна: [/b]США
[b]Студия: [/b]Warner Bros. Pictures
[b]Продолжительность: [/b]02:54:25
[b]Перевод: [/b]Профессиональный дублированный
Файл
[b]Кодек: [/b]HEVC x265 10 bit
[b]Качество: [/b]BDRip-HEVC 1080p
[b]Видео: [/b]1920x800, 23.976 кадр/сек, 4747 Кбит/сек, (Main 10@L5.1@High) 10bit
[b]Звук: [/b]
[b]Аудио1:[/b] Русская, AC3 448 Кбит/сек, 6 канала(ов),16bit 48,0 КГц
[b]Аудио2:[/b] English, AC3 448 Кбит/сек, 6 канала(ов),16bit 48,0 КГц
[b]Субтитры: [/b]Нет
[b]Навигация по главам: [/b]Есть
[b]Скриншоты:[/b]
[url=http://radikal.ru/fp/ao8sjs82zixlz][img]http://s019.radikal.ru/i620/1711/b1/d0686a37ddd2t.jpg[/img][/url] [url=http://radikal.ru/fp/z76i41hnstwbu][img]http://s008.radikal.ru/i305/1711/fd/bb5cf645cd49t.jpg[/img][/url] [url=http://radikal.ru/fp/l43e3v50y8i6c][img]http://s008.radikal.ru/i305/1711/1e/ae83f73757cet.jpg[/img][/url] [url=http://radikal.ru/fp/je5dyc3roqces][img]http://s018.radikal.ru/i513/1711/95/a54aa4c8ee4dt.jpg[/img][/url]
[spoiler="Mediainfo"]General
Unique ID : 172506316599009762607396335587400210118 (0x81C7821119236BD390144498FA31D6C6)
Complete name : T:HDFILMSHarry Potter.Collection [HEVC] 10bit2.Harry Potter and the Chamber of Secrets [Extended Edition] (2002) BDRip 1080p [HEVC] 10bit.mkv
Format : Matroska
Format version : Version 4 / Version 2
File size : 6.88 GiB
Duration : 2 h 54 min
Overall bit rate : 5 644 kb/s
Movie name : rip_by_Cthulhu
Encoded date : UTC 2017-11-06 10:51:00
Writing application : mkvmerge v13.0.0 ('The Juggler') 64bit
Writing library : libebml v1.3.4 + libmatroska v1.4.5
Cover : Yes
Attachments : cover2.jpg
Video
ID : 1
Format : HEVC
Format/Info : High Efficiency Video Coding
Format profile : Main 10@L5.1@High
Codec ID : V_MPEGH/ISO/HEVC
Duration : 2 h 54 min
Bit rate : 4 747 kb/s
Width : 1 920 pixels
Height : 800 pixels
Display aspect ratio : 2.40:1
Frame rate mode : Constant
Frame rate : 23.976 (24000/1001) FPS
Color space : YUV
Chroma subsampling : 4:2:0
Bit depth : 10 bits
Bits/(Pixel*Frame) : 0.129
Stream size : 5.78 GiB (84%)
Writing library : x265 2.5+31-df2de6ea407d:[Windows][GCC 7.1.0][64 bit] 10bit
Encoding settings : cpuid=1050111 / frame-threads=5 / numa-pools=4 / wpp / no-pmode / no-pme / no-psnr / no-ssim / log-level=3 / input-csp=1 / input-res=1920x800 / interlace=0 / total-frames=0 / level-idc=51 / high-tier=1 / uhd-bd=0 / ref=4 / no-allow-non-conformance / no-repeat-headers / annexb / no-aud / no-hrd / info / hash=0 / no-temporal-layers / open-gop / min-keyint=23 / keyint=230 / bframes=10 / b-adapt=2 / b-pyramid / bframe-bias=0 / rc-lookahead=40 / lookahead-slices=5 / scenecut=40 / no-intra-refresh / ctu=64 / min-cu-size=8 / no-rect / no-amp / max-tu-size=32 / tu-inter-depth=2 / tu-intra-depth=2 / limit-tu=0 / rdoq-level=0 / dynamic-rd=0.00 / no-ssim-rd / signhide / no-tskip / nr-intra=0 / nr-inter=0 / no-constrained-intra / strong-intra-smoothing / max-merge=3 / limit-refs=3 / no-limit-modes / me=2 / subme=3 / merange=57 / temporal-mvp / weightp / weightb / no-analyze-src-pics / deblock=-3:-3 / no-sao / no-sao-non-deblock / rd=3 / no-early-skip / rskip / no-fast-intra / no-tskip-fast / no-cu-lossless / no-b-intra / no-splitrd-skip / rdpenalty=0 / psy-rd=1.00 / psy-rdoq=0.00 / no-rd-refine / analysis-reuse-mode=0 / no-lossless / cbqpoffs=0 / crqpoffs=0 / rc=crf / crf=19.0 / qcomp=0.60 / qpstep=4 / stats-write=0 / stats-read=0 / vbv-maxrate=50000 / vbv-bufsize=35714 / vbv-init=0.9 / crf-max=30.0 / crf-min=0.0 / ipratio=1.40 / pbratio=1.30 / aq-mode=2 / aq-strength=1.00 / cutree / zone-count=0 / no-strict-cbr / qg-size=32 / no-rc-grain / qpmax=69 / qpmin=0 / no-const-vbv / sar=1 / overscan=0 / videoformat=5 / range=0 / colorprim=2 / transfer=2 / colormatrix=2 / chromaloc=0 / display-window=0 / max-cll=0,0 / min-luma=0 / max-luma=1023 / log2-max-poc-lsb=8 / vui-timing-info / vui-hrd-info / slices=1 / opt-qp-pps / opt-ref-list-length-pps / no-multi-pass-opt-rps / scenecut-bias=0.05 / no-opt-cu-delta-qp / no-aq-motion / no-hdr / no-hdr-opt / no-dhdr10-opt / analysis-reuse-level=5 / scale-factor=0 / refine-intra=0 / refine-inter=0 / refine-mv=0 / no-limit-sao / ctu-info=0
Language : English
Default : Yes
Forced : No
Audio #1
ID : 2
Format : AC-3
Format/Info : Audio Coding 3
Format settings, Endianness : Big
Codec ID : A_AC3
Duration : 2 h 54 min
Bit rate mode : Constant
Bit rate : 448 kb/s
Channel(s) : 6 channels
Channel positions : Front: L C R, Side: L R, LFE
Sampling rate : 48.0 kHz
Frame rate : 31.250 FPS (1536 SPF)
Bit depth : 16 bits
Compression mode : Lossy
Stream size : 559 MiB (8%)
Language : Russian
Service kind : Complete Main
Default : Yes
Forced : No
Audio #2
ID : 3
Format : AC-3
Format/Info : Audio Coding 3
Format settings, Endianness : Big
Codec ID : A_AC3
Duration : 2 h 54 min
Bit rate mode : Constant
Bit rate : 448 kb/s
Channel(s) : 6 channels
Channel positions : Front: L C R, Side: L R, LFE
Sampling rate : 48.0 kHz
Frame rate : 31.250 FPS (1536 SPF)
Bit depth : 16 bits
Compression mode : Lossy
Stream size : 559 MiB (8%)
Language : English
Service kind : Complete Main
Default : No
Forced : No
Menu
00:00:00.000 : :In a Cage
00:03:00.972 : :Dobby's Warning
00:08:37.015 : :Car Rescue
00:11:31.024 : :The Burrow
00:14:48.554 : :To Diagon Aley
00:21:20.070 : :Flourish and Blotts
00:25:38.454 : :Flying to Hogwarts
00:29:31.520 : :Whomping Willow
00:32:32.242 : :Not Expelled...Today
00:35:25.290 : :Mandrakes; Ron's Howler
00:39:50.805 : :Gilderoy Lockhart
00:43:52.546 : :Mudbloods and Murmurs
00:48:40.125 : :Writing on the Wall
00:54:08.287 : :About the Chamber
00:58:08.276 : :Rogue Bludger
01:04:08.595 : :No Longer Safe
01:09:25.495 : :Dueling Club
01:14:12.740 : :A Parselmouth
01:20:33.078 : :Nothing to Tell
01:25:59.321 : :Polyjuice Potion
01:31:56.886 : :Harry and Ron Transformed
01:36:22.485 : :The Diary
01:41:54.984 : :Tom Riddle
01:46:02.815 : :Petrified
01:50:33.377 : :Cornelius Fudge
01:55:39.557 : :Aragog
02:00:30.473 : :Spider Attack
02:04:36.844 : :Missing
02:08:55.060 : :Chamber of Secrets
02:14:22.137 : :Backfire
02:17:38.625 : :Heir of Slytherin
02:23:01.156 : :The Basilisk
02:28:01.289 : :Healing Powers
02:31:34.794 : :Out of the Hat
02:34:49.071 : :Dobby's Reward
02:40:04.303 : :Welcome Back
02:45:11.944 : :End Credits[/spoiler]
[spoiler="Гарри Поттер и узник Азкабана / Harry Potter and the Prisoner of Azkaban (2004) | D"][img]http://s018.radikal.ru/i527/1711/e9/4a185e0d479e.jpg[/img]
Информация о фильме
[b]Название: [/b]Гарри Поттер и узник Азкабана
[b]Оригинальное название: [/b]Harry Potter and the Prisoner of Azkaban
[b]Год выхода: [/b]2004
[b]Жанр: [/b] фэнтези, приключения, семейный
[b]Режиссер: [/b]Альфонсо Куарон
[b]В ролях: [/b]Дэниэл Рэдклифф, Руперт Гринт, Эмма Уотсон, Том Фелтон, Гари Олдман, Дэвид Тьюлис, Майкл Гэмбон, Алан Рикман, Мэгги Смит, Робби Колтрейн
[b]О фильме:[/b]
В третьей части экранизации бестселлера о юном волшебнике, полюбившиеся всем герои — Гарри Поттер, Рон и Гермиона — возвращаются уже на третий курс школы чародейства и волшебства «Хогвартс». На этот раз они должны раскрыть тайну узника, сбежавшего из зловещей тюрьмы Азкабан, чье пребывание на воле создает для Гарри смертельную опасность…
[url=http://www.imdb.com/title/tt0304141/][img]http://live-rutor.org/parse/s.rutor.org/imdb/pic/0304141.gif[/img][/url] [url=http://www.kinopoisk.ru/film/322/][img]http://www.kinopoisk.ru/rating/322.gif[/img][/url]
[b]Страна: [/b]США
[b]Студия: [/b]Warner Bros. Pictures
[b]Продолжительность: [/b]02:21:42
[b]Перевод: [/b]Профессиональный дублированный
Файл
[b]Кодек: [/b]HEVC x265 10 bit
[b]Качество: [/b]BDRip-HEVC 1080p
[b]Видео: [/b]1918x796, 23.976 кадр/сек, 4997 Кбит/сек, (Main 10@L5.1@High) 10bit
[b]Звук: [/b]
[b]Аудио1:[/b] Русская, AC3 448 Кбит/сек, 6 канала(ов),16bit 48,0 КГц
[b]Аудио2:[/b] English, AC3 384 Кбит/сек, 6 канала(ов),16bit 48,0 КГц
[b]Субтитры: [/b]Нет
[b]Навигация по главам: [/b]Есть
[b]Скриншоты:[/b]
[url=http://radikal.ru/fp/pzw92f84p8dep][img]http://s019.radikal.ru/i631/1711/69/669803d9512ft.jpg[/img][/url] [url=http://radikal.ru/fp/3tpov9qypvvk1][img]http://s16.radikal.ru/i190/1711/e9/a2b45c28fdaet.jpg[/img][/url] [url=http://radikal.ru/fp/ay8k46clwmy9q][img]http://s16.radikal.ru/i191/1711/33/e0d9942013e2t.jpg[/img][/url] [url=http://radikal.ru/fp/p0pud3hgg3f71][img]http://s009.radikal.ru/i307/1711/d7/e19cd03cea0et.jpg[/img][/url]
[spoiler="Mediainfo"]General
Unique ID : 248929692333571216998534302051128272645 (0xBB461D66E3F0280887179173C21B6705)
Complete name : T:HDFILMSHarry Potter.Collection [HEVC] 10bit3.Harry Potter and the Prisoner of Azkaban (2004) BDRip 1080p [HEVC] 10bit.mkv
Format : Matroska
Format version : Version 4 / Version 2
File size : 5.83 GiB
Duration : 2 h 21 min
Overall bit rate : 5 895 kb/s
Movie name : rip_by_Cthulhu
Encoded date : UTC 2017-11-10 14:17:30
Writing application : mkvmerge v13.0.0 ('The Juggler') 64bit
Writing library : libebml v1.3.4 + libmatroska v1.4.5
Cover : Yes
Attachments : cover3.jpg
Video
ID : 1
Format : HEVC
Format/Info : High Efficiency Video Coding
Format profile : Main 10@L5.1@High
Codec ID : V_MPEGH/ISO/HEVC
Duration : 2 h 21 min
Bit rate : 4 997 kb/s
Width : 1 918 pixels
Height : 796 pixels
Display aspect ratio : 2.40:1
Frame rate mode : Constant
Frame rate : 23.976 (24000/1001) FPS
Color space : YUV
Chroma subsampling : 4:2:0
Bit depth : 10 bits
Bits/(Pixel*Frame) : 0.137
Stream size : 4.95 GiB (85%)
Writing library : x265 2.5+31-df2de6ea407d:[Windows][GCC 7.1.0][64 bit] 10bit
Encoding settings : cpuid=1050111 / frame-threads=5 / numa-pools=4 / wpp / no-pmode / no-pme / no-psnr / no-ssim / log-level=3 / input-csp=1 / input-res=1918x796 / interlace=0 / total-frames=0 / level-idc=51 / high-tier=1 / uhd-bd=0 / ref=4 / no-allow-non-conformance / no-repeat-headers / annexb / no-aud / no-hrd / info / hash=0 / no-temporal-layers / open-gop / min-keyint=23 / keyint=230 / bframes=10 / b-adapt=2 / b-pyramid / bframe-bias=0 / rc-lookahead=40 / lookahead-slices=5 / scenecut=40 / no-intra-refresh / ctu=64 / min-cu-size=8 / no-rect / no-amp / max-tu-size=32 / tu-inter-depth=3 / tu-intra-depth=3 / limit-tu=0 / rdoq-level=0 / dynamic-rd=0.00 / no-ssim-rd / signhide / no-tskip / nr-intra=0 / nr-inter=0 / no-constrained-intra / strong-intra-smoothing / max-merge=3 / limit-refs=3 / no-limit-modes / me=2 / subme=7 / merange=57 / temporal-mvp / weightp / weightb / no-analyze-src-pics / deblock=-3:-3 / no-sao / no-sao-non-deblock / rd=3 / no-early-skip / rskip / no-fast-intra / no-tskip-fast / no-cu-lossless / no-b-intra / no-splitrd-skip / rdpenalty=0 / psy-rd=1.00 / psy-rdoq=0.00 / no-rd-refine / analysis-reuse-mode=0 / no-lossless / cbqpoffs=0 / crqpoffs=0 / rc=crf / crf=19.0 / qcomp=0.60 / qpstep=4 / stats-write=0 / stats-read=0 / vbv-maxrate=50000 / vbv-bufsize=35714 / vbv-init=0.9 / crf-max=30.0 / crf-min=0.0 / ipratio=1.40 / pbratio=1.30 / aq-mode=1 / aq-strength=1.00 / cutree / zone-count=0 / no-strict-cbr / qg-size=32 / no-rc-grain / qpmax=69 / qpmin=0 / no-const-vbv / sar=1 / overscan=0 / videoformat=5 / range=0 / colorprim=2 / transfer=2 / colormatrix=2 / chromaloc=0 / display-window=0 / max-cll=0,0 / min-luma=0 / max-luma=1023 / log2-max-poc-lsb=8 / vui-timing-info / vui-hrd-info / slices=1 / opt-qp-pps / opt-ref-list-length-pps / no-multi-pass-opt-rps / scenecut-bias=0.05 / no-opt-cu-delta-qp / no-aq-motion / no-hdr / no-hdr-opt / no-dhdr10-opt / analysis-reuse-level=5 / scale-factor=0 / refine-intra=0 / refine-inter=0 / refine-mv=0 / no-limit-sao / ctu-info=0
Language : English
Default : Yes
Forced : No
Audio #1
ID : 2
Format : AC-3
Format/Info : Audio Coding 3
Format settings, Endianness : Big
Codec ID : A_AC3
Duration : 2 h 21 min
Bit rate mode : Constant
Bit rate : 448 kb/s
Channel(s) : 6 channels
Channel positions : Front: L C R, Side: L R, LFE
Sampling rate : 48.0 kHz
Frame rate : 31.250 FPS (1536 SPF)
Bit depth : 16 bits
Compression mode : Lossy
Stream size : 454 MiB (8%)
Language : Russian
Service kind : Complete Main
Default : Yes
Forced : No
Audio #2
ID : 3
Format : AC-3
Format/Info : Audio Coding 3
Format settings, Endianness : Big
Codec ID : A_AC3
Duration : 2 h 21 min
Bit rate mode : Constant
Bit rate : 448 kb/s
Channel(s) : 6 channels
Channel positions : Front: L C R, Side: L R, LFE
Sampling rate : 48.0 kHz
Frame rate : 31.250 FPS (1536 SPF)
Bit depth : 16 bits
Compression mode : Lossy
Stream size : 454 MiB (8%)
Language : English
Service kind : Complete Main
Default : No
Forced : No
Menu
00:00:00.000 : :Under Covers Prologue
00:01:40.100 : :Aunt Marge's Big Mistake
00:06:36.229 : :The Knight Bus
00:12:45.931 : :The Leaky Cauldron
00:14:52.516 : :The Monster Book of Monsters
00:16:12.513 : :In Grave Danger
00:18:56.218 : :The Dementor
00:23:50.387 : :Welcome and Warning
00:28:50.729 : :Tea Leaves
00:31:21.838 : :Backbeak
00:38:50.161 : :Boggart in the Wardrobe
00:44:45.307 : :Talent for Trouble
00:47:37.813 : :Flight of the Fat Lady
00:49:39.935 : :Substitute Teacher
00:53:42.844 : :Grim Defeat
00:57:28.403 : :The Marauder's Map
01:01:23.721 : :Who's There?
01:03:22.924 : :I Hope He Finds Me
01:07:10.985 : :The Patronus
01:11:53.475 : :Seeing the Impossible
01:19:10.078 : :Professor Trelarney's Prediction
01:22:29.945 : :Witness to an Execution
01:27:30.870 : :The Whomping Willow
01:30:13.366 : :Sirius Black
01:34:19.028 : :Peter Pettigrew
01:36:56.894 : :Friends Become Foes
01:42:24.471 : :The Dementor's Kiss
01:45:40.334 : :Hermione's Secret
01:50:03.597 : :Onlookers to the Rescue
01:55:33.343 : :Saving Lives
02:00:07.408 : :Truly Seen, Truly Free
02:03:16.055 : :Two Places at Once
02:06:02.513 : :Mischief Managed
02:08:42.923 : :The Firebolt
02:09:47.404 : :End Credits Map[/spoiler]
[spoiler="Гарри Поттер и Кубок огня / Harry Potter and the Goblet of Fire (2005) | D"][img]http://i057.radikal.ru/1711/da/98760839c432.jpg[/img]
Информация о фильме
[b]Название: [/b]Гарри Поттер и Кубок огня
[b]Оригинальное название: [/b]Harry Potter and the Goblet of Fire
[b]Год выхода: [/b]2005
[b]Жанр: [/b] фэнтези, приключения, семейный
[b]Режиссер: [/b]Майк Ньюэлл
[b]В ролях: [/b]Дэниэл Рэдклифф, Руперт Гринт, Эмма Уотсон, Брендан Глисон, Алан Рикман, Майкл Гэмбон, Рэйф Файнс, Роберт Паттинсон, Робби Колтрейн, Мэгги Смит
[b]О фильме:[/b]
Гарри Поттер, Рон и Гермиона возвращаются на четвертый курс школы чародейства и волшебства «Хогвартс». При таинственных обстоятельствах Гарри отобран в число участников опасного соревнования — Турнира Трех Волшебников, однако проблема в том, что все его соперники — намного старше и сильнее. К тому же, знаки указывают на возвращение Лорда Волдеморта. Вскоре Гарри предстоит побороться не только за победу в соревновании, но и, прежде всего, за свою жизнь…
[url=http://www.imdb.com/title/tt0330373/][img]http://live-rutor.org/parse/s.rutor.org/imdb/pic/0330373.gif[/img][/url] [url=http://www.kinopoisk.ru/film/8408/][img]http://www.kinopoisk.ru/rating/8408.gif[/img][/url]
[b]Страна: [/b]США
[b]Студия: [/b]Warner Bros. Pictures
[b]Продолжительность: [/b]02:37:05
[b]Перевод: [/b]Профессиональный дублированный
Файл
[b]Кодек: [/b]HEVC x265 10 bit
[b]Качество: [/b]BDRip-HEVC 1080p
[b]Видео: [/b]1920x796, 23.978 кадр/сек, 4557 Кбит/сек, (Main 10@L5.1@High) 10bit
[b]Звук: [/b]
[b]Аудио1:[/b] Русская, AC3 448 Кбит/сек, 6 канала(ов),16bit 48,0 КГц
[b]Аудио2:[/b] English, AC3 448 Кбит/сек, 6 канала(ов),16bit 48,0 КГц
[b]Субтитры: [/b]Нет
[b]Навигация по главам: [/b]Есть
[b]Скриншоты:[/b]
[url=http://radikal.ru/fp/5jlytm6fgyg9j][img]http://s018.radikal.ru/i522/1711/41/f86a55c318c9t.jpg[/img][/url] [url=http://radikal.ru/fp/3hlvo0zwe3cz7][img]http://i062.radikal.ru/1711/dd/c4e6823629a3t.jpg[/img][/url] [url=http://radikal.ru/fp/9r4jmhn3iux8k][img]http://s008.radikal.ru/i305/1711/87/251936e2f28ft.jpg[/img][/url] [url=http://radikal.ru/fp/g3lcmiscs6kx8][img]http://s019.radikal.ru/i611/1711/d6/34324d052262t.jpg[/img][/url]
[spoiler="Mediainfo"]General
Unique ID : 188830126917606076735787996577558432824 (0x8E0F5C0DA6CB5AAA805B3367AF340C38)
Complete name : T:HDFILMSHarry Potter.Collection [HEVC] 10bit4.Harry Potter and the Goblet of Fire (2005) BDRip 1080p [HEVC] 10bit.mkv
Format : Matroska
Format version : Version 4 / Version 2
File size : 5.99 GiB
Duration : 2 h 37 min
Overall bit rate : 5 455 kb/s
Movie name : rip_by_Cthulhu
Encoded date : UTC 2017-11-10 14:30:56
Writing application : mkvmerge v13.0.0 ('The Juggler') 64bit
Writing library : libebml v1.3.4 + libmatroska v1.4.5
Cover : Yes
Attachments : cover4.jpg
Video
ID : 1
Format : HEVC
Format/Info : High Efficiency Video Coding
Format profile : Main 10@L5.1@High
Codec ID : V_MPEGH/ISO/HEVC
Duration : 2 h 37 min
Bit rate : 4 557 kb/s
Width : 1 920 pixels
Height : 798 pixels
Display aspect ratio : 2.40:1
Frame rate mode : Constant
Frame rate : 23.976 (24000/1001) FPS
Color space : YUV
Chroma subsampling : 4:2:0
Bit depth : 10 bits
Bits/(Pixel*Frame) : 0.124
Stream size : 5.00 GiB (84%)
Writing library : x265 2.5+31-df2de6ea407d:[Windows][GCC 7.1.0][64 bit] 10bit
Encoding settings : cpuid=1050111 / frame-threads=5 / numa-pools=4 / wpp / no-pmode / no-pme / no-psnr / no-ssim / log-level=3 / input-csp=1 / input-res=1920x798 / interlace=0 / total-frames=0 / level-idc=51 / high-tier=1 / uhd-bd=0 / ref=4 / no-allow-non-conformance / no-repeat-headers / annexb / no-aud / no-hrd / info / hash=0 / no-temporal-layers / open-gop / min-keyint=3 / keyint=24 / bframes=10 / b-adapt=2 / b-pyramid / bframe-bias=0 / rc-lookahead=40 / lookahead-slices=5 / scenecut=40 / no-intra-refresh / ctu=64 / min-cu-size=8 / no-rect / no-amp / max-tu-size=32 / tu-inter-depth=3 / tu-intra-depth=3 / limit-tu=0 / rdoq-level=0 / dynamic-rd=0.00 / no-ssim-rd / signhide / no-tskip / nr-intra=0 / nr-inter=0 / no-constrained-intra / strong-intra-smoothing / max-merge=3 / limit-refs=3 / no-limit-modes / me=2 / subme=7 / merange=57 / temporal-mvp / weightp / weightb / no-analyze-src-pics / deblock=-3:-3 / no-sao / no-sao-non-deblock / rd=3 / no-early-skip / rskip / no-fast-intra / no-tskip-fast / no-cu-lossless / no-b-intra / no-splitrd-skip / rdpenalty=0 / psy-rd=1.00 / psy-rdoq=0.00 / no-rd-refine / analysis-reuse-mode=0 / no-lossless / cbqpoffs=0 / crqpoffs=0 / rc=crf / crf=19.0 / qcomp=0.60 / qpstep=4 / stats-write=0 / stats-read=0 / vbv-maxrate=50000 / vbv-bufsize=35714 / vbv-init=0.9 / crf-max=30.0 / crf-min=0.0 / ipratio=1.40 / pbratio=1.30 / aq-mode=2 / aq-strength=1.00 / cutree / zone-count=0 / no-strict-cbr / qg-size=32 / no-rc-grain / qpmax=69 / qpmin=0 / no-const-vbv / sar=1 / overscan=0 / videoformat=5 / range=0 / colorprim=1 / transfer=1 / colormatrix=1 / chromaloc=0 / display-window=0 / max-cll=0,0 / min-luma=0 / max-luma=1023 / log2-max-poc-lsb=8 / vui-timing-info / vui-hrd-info / slices=1 / opt-qp-pps / opt-ref-list-length-pps / no-multi-pass-opt-rps / scenecut-bias=0.05 / no-opt-cu-delta-qp / no-aq-motion / no-hdr / no-hdr-opt / no-dhdr10-opt / analysis-reuse-level=5 / scale-factor=0 / refine-intra=0 / refine-inter=0 / refine-mv=0 / no-limit-sao / ctu-info=0
Language : English
Default : Yes
Forced : No
Color range : Limited
Color primaries : BT.709
Transfer characteristics : BT.709
Matrix coefficients : BT.709
Audio #1
ID : 2
Format : AC-3
Format/Info : Audio Coding 3
Format settings, Endianness : Big
Codec ID : A_AC3
Duration : 2 h 37 min
Bit rate mode : Constant
Bit rate : 448 kb/s
Channel(s) : 6 channels
Channel positions : Front: L C R, Side: L R, LFE
Sampling rate : 48.0 kHz
Frame rate : 31.250 FPS (1536 SPF)
Bit depth : 16 bits
Compression mode : Lossy
Stream size : 503 MiB (8%)
Language : Russian
Service kind : Complete Main
Default : Yes
Forced : No
Audio #2
ID : 3
Format : AC-3
Format/Info : Audio Coding 3
Format settings, Endianness : Big
Codec ID : A_AC3
Duration : 2 h 37 min
Bit rate mode : Constant
Bit rate : 448 kb/s
Channel(s) : 6 channels
Channel positions : Front: L C R, Side: L R, LFE
Sampling rate : 48.0 kHz
Frame rate : 31.250 FPS (1536 SPF)
Bit depth : 16 bits
Compression mode : Lossy
Stream size : 503 MiB (8%)
Language : English
Service kind : Complete Main
Default : No
Forced : No
Menu
00:00:00.000 : :The Riddle House
00:03:46.559 : :The Portkey
00:06:09.369 : :The Quidditch World Cup
00:09:50.089 : :The Dark Mark
00:13:45.324 : :The Triwizard Tournament
00:19:14.987 : :The Goblet of Fire
00:23:09.388 : :The Unforgivable Curses
00:29:01.573 : :The Four Champions
00:36:26.684 : :Let Events Unfold
00:39:05.009 : :Rita Skeeter
00:41:32.490 : :Sirius Conversation
00:45:36.400 : :The Hungarian Horntail
00:49:07.778 : :Transforming Malfoy
00:54:06.243 : :The First Task
01:02:46.596 : :Best Foot Foward
01:09:12.982 : :An Unexpected Challenge
01:14:43.979 : :The Yule Ball
01:22:27.609 : :The Egg's Glue
01:30:34.762 : :The Second Task
01:39:29.296 : :Never Whole Again
01:42:42.489 : :The Pensieve
01:47:22.936 : :Dreams and Suspicions
01:50:19.279 : :The Thrid Task
01:58:54.460 : :Flesh, Blood, and Bone
02:02:02.315 : :The Death Eaters
02:06:36.589 : :Priori Incantatem
02:10:01.627 : :Veritaserum
02:17:38.083 : :Parting Ways
02:23:48.620 : :End Credits
02:37:03.914 : :End[/spoiler]
[spoiler="Гарри Поттер и орден Феникса / Harry Potter and the Order of the Phoenix (2007) | D"][img]http://s008.radikal.ru/i303/1711/af/1d78511d7632.jpg[/img]
Информация о фильме
[b]Название: [/b]Гарри Поттер и орден Феникса
[b]Оригинальное название: [/b]Harry Potter and the Order of the Phoenix
[b]Год выхода: [/b]2007
[b]Жанр: [/b] фэнтези, приключения, семейный
[b]Режиссер: [/b]Дэвид Йэтс
[b]В ролях: [/b]Дэниэл Рэдклифф, Руперт Гринт, Эмма Уотсон, Гари Олдман, Рэйф Файнс, Майкл Гэмбон, Том Фелтон, Имелда Стонтон, Эванна Линч, Алан Рикман
[b]О фильме:[/b]
Гарри проводит свой пятый год обучения в школе Хогвартс и обнаруживает, что многие из членов волшебного сообщества отрицают сам факт недавнего состязания юного волшебника с воплощением вселенского зла Волдемортом, делая вид, что не имеют ни малейшего представления о том, что злодей вернулся. Опасаясь, что почтенный глава Хогвартса Альбус Дамблдор распространяет лживые слухи о возвращении Волдеморта, стремясь подорвать авторитет Министра Магии Корнелиуса Фаджа и в дальнейшем занять его место, Корнелиус назначает нового профессора защиты от темных искусств, который должен будет пристально следить за Дамблдором и студентами Хогвартса. Но одобренный министерством курс лекций по защитной магии профессора Долорес Амбридж оказывается на практике абсолютно бесполезным — юные волшебники просто неспособны противостоять действию темных сил, угрожающих им и всему волшебному сообществу. И тогда, по настоянию своих друзей, Гермионы и Рона, Гарри берет инициативу в свои руки. Тайно встречаясь с небольшой группой студентов, называющей себя Отрядом Дамблдора, Гарри обучает их самозащите от темных сил, готовя отважных волшебников к необычной схватке, которая ждет их впереди.
[url=http://www.imdb.com/title/tt0373889/][img]http://live-rutor.org/parse/s.rutor.org/imdb/pic/0373889.gif[/img][/url] [url=http://www.kinopoisk.ru/film/48356/][img]http://www.kinopoisk.ru/rating/48356.gif[/img][/url]
[b]Страна: [/b]США
[b]Студия: [/b]Warner Bros. Pictures
[b]Продолжительность: [/b]02:18:14
[b]Перевод: [/b]Профессиональный дублированный
Файл
[b]Кодек: [/b]HEVC x265 10 bit
[b]Качество: [/b]BDRip-HEVC 1080p
[b]Видео: [/b]1920x796, 23.978 кадр/сек, 4539 Кбит/сек, (Main 10@L5.1@High) 10bit
[b]Звук: [/b]
[b]Аудио1:[/b] Русская, AC3 448 Кбит/сек, 6 канала(ов),16bit 48,0 КГц
[b]Аудио2:[/b] English, AC3 448 Кбит/сек, 6 канала(ов),16bit 48,0 КГц
[b]Субтитры: [/b]Нет
[b]Навигация по главам: [/b]Есть
[b]Скриншоты:[/b]
[url=http://radikal.ru/fp/29ijj6fhkel2t][img]http://i053.radikal.ru/1711/e2/9bdb8c1afbb0t.jpg[/img][/url] [url=http://radikal.ru/fp/5b7bldyxnjmh3][img]http://s019.radikal.ru/i643/1711/23/c3366eb39ad6t.jpg[/img][/url] [url=http://radikal.ru/fp/j5c7q4ppdbu7i][img]http://s018.radikal.ru/i505/1711/aa/c7cb5c1f37e4t.jpg[/img][/url] [url=http://radikal.ru/fp/ugjz35xj6s6jb][img]http://s016.radikal.ru/i337/1711/81/2cd883a01518t.jpg[/img][/url]
[spoiler="Mediainfo"]General
Unique ID : 247249154241601238501711353574010619423 (0xBA02747A1521BBB3844B4F23F10F861F)
Complete name : T:HDFILMSHarry Potter.Collection [HEVC] 10bit5.Harry Potter and the Order of the Phoenix (2007) BDRip 1080p [HEVC] 10bit.mkv
Format : Matroska
Format version : Version 4 / Version 2
File size : 5.25 GiB
Duration : 2 h 18 min
Overall bit rate : 5 437 kb/s
Movie name : rip_by_Cthulhu
Encoded date : UTC 2017-11-17 15:40:42
Writing application : mkvmerge v13.0.0 ('The Juggler') 64bit
Writing library : libebml v1.3.4 + libmatroska v1.4.5
Cover : Yes
Attachments : cover5.jpg
Video
ID : 1
Format : HEVC
Format/Info : High Efficiency Video Coding
Format profile : Main 10@L5.1@High
Codec ID : V_MPEGH/ISO/HEVC
Duration : 2 h 18 min
Bit rate : 4 539 kb/s
Width : 1 920 pixels
Height : 796 pixels
Display aspect ratio : 2.40:1
Frame rate mode : Constant
Frame rate : 23.976 (24000/1001) FPS
Color space : YUV
Chroma subsampling : 4:2:0
Bit depth : 10 bits
Bits/(Pixel*Frame) : 0.124
Stream size : 4.38 GiB (83%)
Writing library : x265 2.5+31-df2de6ea407d:[Windows][GCC 7.1.0][64 bit] 10bit
Encoding settings : cpuid=1050111 / frame-threads=5 / numa-pools=4 / wpp / no-pmode / no-pme / no-psnr / no-ssim / log-level=3 / input-csp=1 / input-res=1920x796 / interlace=0 / total-frames=0 / level-idc=51 / high-tier=1 / uhd-bd=0 / ref=4 / no-allow-non-conformance / no-repeat-headers / annexb / no-aud / no-hrd / info / hash=0 / no-temporal-layers / open-gop / min-keyint=23 / keyint=250 / bframes=10 / b-adapt=2 / b-pyramid / bframe-bias=0 / rc-lookahead=40 / lookahead-slices=5 / scenecut=40 / no-intra-refresh / ctu=64 / min-cu-size=8 / no-rect / no-amp / max-tu-size=32 / tu-inter-depth=3 / tu-intra-depth=3 / limit-tu=0 / rdoq-level=0 / dynamic-rd=0.00 / no-ssim-rd / signhide / no-tskip / nr-intra=0 / nr-inter=0 / no-constrained-intra / strong-intra-smoothing / max-merge=3 / limit-refs=3 / no-limit-modes / me=2 / subme=7 / merange=57 / temporal-mvp / weightp / weightb / no-analyze-src-pics / deblock=-3:-3 / no-sao / no-sao-non-deblock / rd=3 / no-early-skip / rskip / no-fast-intra / no-tskip-fast / no-cu-lossless / no-b-intra / no-splitrd-skip / rdpenalty=0 / psy-rd=1.00 / psy-rdoq=0.00 / no-rd-refine / analysis-reuse-mode=0 / no-lossless / cbqpoffs=0 / crqpoffs=0 / rc=crf / crf=19.0 / qcomp=0.60 / qpstep=4 / stats-write=0 / stats-read=0 / vbv-maxrate=50000 / vbv-bufsize=35714 / vbv-init=0.9 / crf-max=30.0 / crf-min=0.0 / ipratio=1.40 / pbratio=1.30 / aq-mode=2 / aq-strength=1.00 / cutree / zone-count=0 / no-strict-cbr / qg-size=32 / no-rc-grain / qpmax=69 / qpmin=0 / no-const-vbv / sar=1 / overscan=0 / videoformat=5 / range=0 / colorprim=1 / transfer=1 / colormatrix=1 / chromaloc=0 / display-window=0 / max-cll=0,0 / min-luma=0 / max-luma=1023 / log2-max-poc-lsb=8 / vui-timing-info / vui-hrd-info / slices=1 / opt-qp-pps / opt-ref-list-length-pps / no-multi-pass-opt-rps / scenecut-bias=0.05 / no-opt-cu-delta-qp / no-aq-motion / no-hdr / no-hdr-opt / no-dhdr10-opt / analysis-reuse-level=5 / scale-factor=0 / refine-intra=0 / refine-inter=0 / refine-mv=0 / no-limit-sao / ctu-info=0
Language : English
Default : Yes
Forced : No
Color range : Limited
Color primaries : BT.709
Transfer characteristics : BT.709
Matrix coefficients : BT.709
Audio #1
ID : 2
Format : AC-3
Format/Info : Audio Coding 3
Format settings, Endianness : Big
Codec ID : A_AC3
Duration : 2 h 18 min
Bit rate mode : Constant
Bit rate : 448 kb/s
Channel(s) : 6 channels
Channel positions : Front: L C R, Side: L R, LFE
Sampling rate : 48.0 kHz
Frame rate : 31.250 FPS (1536 SPF)
Bit depth : 16 bits
Compression mode : Lossy
Stream size : 443 MiB (8%)
Language : Russian
Service kind : Complete Main
Default : Yes
Forced : No
Audio #2
ID : 3
Format : AC-3
Format/Info : Audio Coding 3
Format settings, Endianness : Big
Codec ID : A_AC3
Duration : 2 h 18 min
Bit rate mode : Constant
Bit rate : 448 kb/s
Channel(s) : 6 channels
Channel positions : Front: L C R, Side: L R, LFE
Sampling rate : 48.0 kHz
Frame rate : 31.250 FPS (1536 SPF)
Bit depth : 16 bits
Compression mode : Lossy
Stream size : 443 MiB (8%)
Language : English
Service kind : Complete Main
Default : No
Forced : No
Menu
00:00:00.000 : :Dudley Demented
00:04:50.957 : :The Advance Guard
00:10:16.782 : :Number 12, Grimmauld Place
00:15:19.919 : :The Order of the Phoenix
00:17:43.228 : :The Ministry of Magic
00:20:52.417 : :The Hearing
00:25:33.532 : :The Originals
00:28:07.352 : :Luna Lovegood
00:30:20.985 : :Preserve, Perfect and Prune
00:34:53.925 : :Professor Umbridge's Class
00:37:41.092 : :Detention with Dolores
00:41:48.506 : :Thestrals and Sympathy
00:44:57.528 : :The Hogwarts High Inquisitor
00:50:57.387 : :In the Hog's Head
00:56:37.394 : :Dumbledore's Army
01:03:28.638 : :Under the Mistletoe
01:07:39.055 : :Occlumency
01:11:16.105 : :House of Black
01:16:30.252 : :Hagrid's Tale
01:19:16.585 : :Unquiet Escape
01:25:30.959 : :Grawp
01:31:30.651 : :Snape's Worst Memory
01:34:49.850 : :O.W.L.S.
01:37:42.356 : :Out of the Fire
01:41:40.260 : :Fight and Flight
01:45:59.353 : :The Department of Mysteries
01:48:37.177 : :Beyond the Veil
01:52:40.920 : :Side By Side
01:57:30.710 : :Wizards Duel
02:03:33.239 : :The Lost Prophecy
02:05:50.709 : :A Way of Coming Back
02:08:26.865 : :End Credits[/spoiler]
[spoiler="Гарри Поттер и Принц-полукровка / Harry Potter and the Half-Blood Prince (2009) | D"][img]http://s013.radikal.ru/i324/1711/d1/133b5f3a3167.jpg[/img]
Информация о фильме
[b]Название: [/b]Гарри Поттер и Принц-полукровка
[b]Оригинальное название: [/b]Harry Potter and the Half-Blood Prince
[b]Год выхода: [/b]2009
[b]Жанр: [/b] фэнтези, приключения, семейный
[b]Режиссер: [/b]Дэвид Йэтс
[b]В ролях: [/b]Дэниэл Рэдклифф, Руперт Гринт, Эмма Уотсон, Майкл Гэмбон, Джим Броудбент, Бонни Райт, Хелена Бонем Картер, Алан Рикман, Том Фелтон, Эванна Линч
[b]О фильме:[/b]
Теперь не только мир волшебников, но и мир маглов ощущает на себе все возрастающую силу Волан-де-Морта, а Хогвартс уже никак не назовешь надежным убежищем, каким он был раньше. Гарри подозревает, что в самом замке затаилась некая опасность, но Дамблдор больше сосредоточен на том, чтобы подготовить его к финальной схватке, которая, как он знает, уже не за горами. Вместе они пытаются разгадать секрет бессмертия Волан-де-Морта, а для этого Дамблдор приглашает на должность преподавателя по зельеварению своего старинного друга и коллегу — профессора Горация Слизнорта, который обожает устраивать вечеринки для избранных и гордится своими обширными связями в высших кругах. Но этот бонвиван и не подозревает, что как раз от него Дамблдор надеется заполучить самую важную информацию о крестражах. Тем временем учеников атакуют самые разные враги, а подростковые эмоции хлещут через край. Гарри начинает понимать, что становится все более неравнодушным к Джинни, однако, и Дин Томас тоже. А Лаванда Браун вбила себе в голову, что Рон — тот самый единственный, которого она ждет, да вот только не учла волшебного эффекта шоколадных конфет Ромильды Вейн! Ну и, наконец, Гермиона пылает жгучей ревностью, но старается не показывать своих чувств. Пока романтические отношения расцветают, лишь один ученик остается в стороне. Он твердо намерен оставить свою метку, темную метку. Любовь витает в воздухе, но впереди ждет беда, и Хогвартс, возможно, уже никогда не будет прежним.
[url=http://www.imdb.com/title/tt0417741/][img]http://live-rutor.org/parse/s.rutor.org/imdb/pic/0417741.gif[/img][/url] [url=http://www.kinopoisk.ru/film/89515/][img]http://www.kinopoisk.ru/rating/89515.gif[/img][/url]
[b]Страна: [/b]США
[b]Студия: [/b]Warner Bros. Pictures
[b]Продолжительность: [/b]02:33:31
[b]Перевод: [/b]Профессиональный дублированный
Файл
[b]Кодек: [/b]HEVC x265 10 bit
[b]Качество: [/b]BDRip-HEVC 1080p
[b]Видео: [/b]1920x800, 23.978 кадр/сек, 4201 Кбит/сек, (Main 10@L5.1@High) 10bit
[b]Звук: [/b]
[b]Аудио1:[/b] Русская, AC3 448 Кбит/сек, 6 канала(ов),16bit 48,0 КГц
[b]Аудио2:[/b] English, AC3 384 Кбит/сек, 6 канала(ов),16bit 48,0 КГц
[b]Субтитры: [/b]Нет
[b]Навигация по главам: [/b]Есть
[b]Скриншоты:[/b]
[url=http://radikal.ru/fp/ek6qsp1t68arj][img]http://s018.radikal.ru/i501/1711/8f/4dbc3a530b4et.jpg[/img][/url] [url=http://radikal.ru/fp/cqaawkpw5bhnp][img]http://s018.radikal.ru/i505/1711/00/6dacc29915d0t.jpg[/img][/url] [url=http://radikal.ru/fp/a2m4b4343niwn][img]http://s16.radikal.ru/i190/1711/5f/97906be5dbd3t.jpg[/img][/url] [url=http://radikal.ru/fp/23xbpouc1il3j][img]http://s013.radikal.ru/i324/1711/df/069913628337t.jpg[/img][/url]
[spoiler="Mediainfo"]General
Unique ID : 171040919520285809047054494167111198826 (0x80AD4869A4471FBCAB9378DF80FA686A)
Complete name : T:HDFILMSHarry Potter.Collection [HEVC] 10bit6.Harry Potter and the Half-Blood Prince (2009) BDRip 1080p [HEVC] 10bit.mkv
Format : Matroska
Format version : Version 4 / Version 2
File size : 5.40 GiB
Duration : 2 h 33 min
Overall bit rate : 5 034 kb/s
Movie name : rip_by_Cthulhu
Encoded date : UTC 2017-11-17 15:51:45
Writing application : mkvmerge v13.0.0 ('The Juggler') 64bit
Writing library : libebml v1.3.4 + libmatroska v1.4.5
Cover : Yes
Attachments : cover6.jpg
Video
ID : 1
Format : HEVC
Format/Info : High Efficiency Video Coding
Format profile : Main 10@L5.1@High
Codec ID : V_MPEGH/ISO/HEVC
Duration : 2 h 33 min
Bit rate : 4 201 kb/s
Width : 1 920 pixels
Height : 800 pixels
Display aspect ratio : 2.40:1
Frame rate mode : Constant
Frame rate : 23.976 (24000/1001) FPS
Color space : YUV
Chroma subsampling : 4:2:0
Bit depth : 10 bits
Bits/(Pixel*Frame) : 0.114
Stream size : 4.50 GiB (83%)
Writing library : x265 2.5+31-df2de6ea407d:[Windows][GCC 7.1.0][64 bit] 10bit
Encoding settings : cpuid=1050111 / frame-threads=5 / numa-pools=4 / wpp / no-pmode / no-pme / no-psnr / no-ssim / log-level=3 / input-csp=1 / input-res=1920x800 / interlace=0 / total-frames=0 / level-idc=51 / high-tier=1 / uhd-bd=0 / ref=4 / no-allow-non-conformance / no-repeat-headers / annexb / no-aud / no-hrd / info / hash=0 / no-temporal-layers / open-gop / min-keyint=23 / keyint=250 / bframes=10 / b-adapt=2 / b-pyramid / bframe-bias=0 / rc-lookahead=40 / lookahead-slices=5 / scenecut=40 / no-intra-refresh / ctu=64 / min-cu-size=8 / no-rect / no-amp / max-tu-size=32 / tu-inter-depth=3 / tu-intra-depth=3 / limit-tu=0 / rdoq-level=1 / dynamic-rd=0.00 / no-ssim-rd / signhide / no-tskip / nr-intra=0 / nr-inter=0 / no-constrained-intra / strong-intra-smoothing / max-merge=3 / limit-refs=3 / no-limit-modes / me=2 / subme=6 / merange=57 / temporal-mvp / weightp / weightb / no-analyze-src-pics / deblock=-3:-3 / no-sao / no-sao-non-deblock / rd=3 / no-early-skip / rskip / no-fast-intra / no-tskip-fast / no-cu-lossless / no-b-intra / no-splitrd-skip / rdpenalty=0 / psy-rd=1.00 / psy-rdoq=0.00 / no-rd-refine / analysis-reuse-mode=0 / no-lossless / cbqpoffs=0 / crqpoffs=0 / rc=crf / crf=19.0 / qcomp=0.60 / qpstep=4 / stats-write=0 / stats-read=0 / vbv-maxrate=50000 / vbv-bufsize=35714 / vbv-init=0.9 / crf-max=30.0 / crf-min=0.0 / ipratio=1.40 / pbratio=1.30 / aq-mode=3 / aq-strength=1.00 / cutree / zone-count=0 / no-strict-cbr / qg-size=32 / no-rc-grain / qpmax=69 / qpmin=0 / no-const-vbv / sar=1 / overscan=0 / videoformat=5 / range=0 / colorprim=1 / transfer=1 / colormatrix=1 / chromaloc=0 / display-window=0 / max-cll=0,0 / min-luma=0 / max-luma=1023 / log2-max-poc-lsb=8 / vui-timing-info / vui-hrd-info / slices=1 / opt-qp-pps / opt-ref-list-length-pps / no-multi-pass-opt-rps / scenecut-bias=0.05 / no-opt-cu-delta-qp / no-aq-motion / no-hdr / no-hdr-opt / no-dhdr10-opt / analysis-reuse-level=5 / scale-factor=0 / refine-intra=0 / refine-inter=0 / refine-mv=0 / no-limit-sao / ctu-info=0
Language : English
Default : Yes
Forced : No
Color range : Limited
Color primaries : BT.709
Transfer characteristics : BT.709
Matrix coefficients : BT.709
Audio #1
ID : 2
Format : AC-3
Format/Info : Audio Coding 3
Format settings, Endianness : Big
Codec ID : A_AC3
Duration : 2 h 33 min
Bit rate mode : Constant
Bit rate : 448 kb/s
Channel(s) : 6 channels
Channel positions : Front: L C R, Side: L R, LFE
Sampling rate : 48.0 kHz
Frame rate : 31.250 FPS (1536 SPF)
Bit depth : 16 bits
Compression mode : Lossy
Stream size : 492 MiB (9%)
Language : Russian
Service kind : Complete Main
Default : Yes
Forced : No
Audio #2
ID : 3
Format : AC-3
Format/Info : Audio Coding 3
Format settings, Endianness : Big
Codec ID : A_AC3
Duration : 2 h 33 min
Bit rate mode : Constant
Bit rate : 384 kb/s
Channel(s) : 6 channels
Channel positions : Front: L C R, Side: L R, LFE
Sampling rate : 48.0 kHz
Frame rate : 31.250 FPS (1536 SPF)
Bit depth : 16 bits
Compression mode : Lossy
Stream size : 422 MiB (8%)
Language : English
Service kind : Complete Main
Default : No
Forced : No
Menu
00:00:00.000 : :Who's Harry Potter?
00:05:28.494 : :Horace Slughorn
00:12:13.941 : :What Could Be Safer?
00:14:57.146 : :Snape's Visitors
00:18:43.205 : :Draco's Detour
00:22:30.515 : :That's For My Father
00:27:36.029 : :Dark Forces
00:32:04.631 : :The Half Blood Prince
00:37:48.224 : :The Secret Riddle
00:44:48.352 : :Hermione's Helping Hand
00:49:31.760 : :Cursed Necklace
00:54:55.375 : :Slug Club
01:00:00.305 : :Felix Felicis
01:03:09.660 : :How It Feels
01:05:57.161 : :Free Agents
01:09:13.691 : :The Unbreakable Vow
01:14:00.102 : :Death Eaters Attack
01:21:09.781 : :A Sluggish Memory
01:26:31.477 : :Perilous Potions
01:33:37.403 : :Sectumsempra
01:39:57.324 : :Hiding the Book
01:43:16.273 : :Liquid Luck
01:48:24.748 : :After Aragog's Burial
01:52:30.118 : :Horcruxes
01:56:53.673 : :The Cave
02:02:11.741 : :Inferi Attack
02:08:33.539 : :The Astronomy Tower
02:15:00.300 : :Flight of the Prince
02:19:08.048 : :R.a.B.
02:23:54.125 : :End Credits[/spoiler]
[spoiler="Гарри Поттер и Дары Смерти: Часть I / Harry Potter and the Deathly Hallows: Part 1 (2010) | D"][img]http://i075.radikal.ru/1711/fc/86af49dbbad7.jpg[/img]
Информация о фильме
[b]Название: [/b]Гарри Поттер и Дары Смерти: Часть I
[b]Оригинальное название: [/b]Harry Potter and the Deathly Hallows: Part 1
[b]Год выхода: [/b]2010
[b]Жанр: [/b] фэнтези, приключения, семейный
[b]Режиссер: [/b]Дэвид Йэтс
[b]В ролях: [/b]Дэниэл Рэдклифф, Руперт Гринт, Эмма Уотсон, Том Фелтон, Бонни Райт, Алан Рикман, Рэйф Файнс, Хелена Бонем Картер, Майкл Гэмбон, Брендан Глисон
[b]О фильме:[/b]
Гарри Поттера ждёт самое страшное испытание в жизни — смертельная схватка с Волан-де-Мортом. Ждать помощи не от кого — Гарри одинок, как никогда… Друзья и враги Гарри предстают в совершенно неожиданном свете. Граница между Добром и Злом становится всё призрачнее…
[url=http://www.imdb.com/title/tt0926084/][img]http://live-rutor.org/parse/s.rutor.org/imdb/pic/0926084.gif[/img][/url] [url=http://www.kinopoisk.ru/film/276762/][img]http://www.kinopoisk.ru/rating/276762.gif[/img][/url]
[b]Страна: [/b]США
[b]Студия: [/b]Warner Bros. Pictures
[b]Продолжительность: [/b]02:26:05
[b]Перевод: [/b]Профессиональный дублированный
Файл
[b]Кодек: [/b]HEVC x265 10 bit
[b]Качество: [/b]BDRip-HEVC 1080p
[b]Видео: [/b]1920x800, 23.978 кадр/сек, 4905 Кбит/сек, (Main 10@L5.1@High) 10bit
[b]Звук: [/b]
[b]Аудио1:[/b] Русская, AC3 640 Кбит/сек, 6 канала(ов),16bit 48,0 КГц
[b]Аудио2:[/b] English, AC3 384 Кбит/сек, 6 канала(ов),16bit 48,0 КГц
[b]Субтитры: [/b]Нет
[b]Навигация по главам: [/b]Есть
[b]Скриншоты:[/b]
[url=http://radikal.ru/fp/etgn0gj12max8][img]http://i057.radikal.ru/1711/96/f622a82a9702t.jpg[/img][/url] [url=http://radikal.ru/fp/ef7nm9xvqnhre][img]http://s001.radikal.ru/i193/1711/63/0a64646dd8abt.jpg[/img][/url] [url=http://radikal.ru/fp/x67387u2sx3ij][img]http://s016.radikal.ru/i334/1711/bd/da4cfb18c3fbt.jpg[/img][/url] [url=http://radikal.ru/fp/039ktiicb43in][img]http://s018.radikal.ru/i504/1711/f1/db8c808c0760t.jpg[/img][/url]
[spoiler="Mediainfo"]General
Unique ID : 201089255800592907529275095687849035604 (0x974861C5C6F6EA2FAC91B593C7FFC754)
Complete name : T:HDFILMSHarry Potter.Collection [HEVC] 10bit7.Harry Potter and the Deathly Hallows. Part 1 (2010) BDRip 1080p [HEVC] 10bit.mkv
Format : Matroska
Format version : Version 4 / Version 2
File size : 6.05 GiB
Duration : 2 h 26 min
Overall bit rate : 5 931 kb/s
Movie name : rip_by_Cthulhu
Encoded date : UTC 2017-11-26 10:07:14
Writing application : mkvmerge v18.0.0 ('Apricity') 64-bit
Writing library : libebml v1.3.5 + libmatroska v1.4.8
Cover : Yes
Attachments : cover7.jpg
Video
ID : 1
Format : HEVC
Format/Info : High Efficiency Video Coding
Format profile : Main 10@L5.1@Main
Codec ID : V_MPEGH/ISO/HEVC
Duration : 2 h 26 min
Bit rate : 4 905 kb/s
Width : 1 920 pixels
Height : 800 pixels
Display aspect ratio : 2.40:1
Frame rate mode : Constant
Frame rate : 23.976 (24000/1001) FPS
Color space : YUV
Chroma subsampling : 4:2:0
Bit depth : 10 bits
Bits/(Pixel*Frame) : 0.133
Stream size : 5.01 GiB (83%)
Writing library : x265 2.5+31-df2de6ea407d:[Windows][GCC 7.1.0][64 bit] 10bit
Encoding settings : cpuid=1050111 / frame-threads=5 / numa-pools=4 / wpp / no-pmode / no-pme / no-psnr / no-ssim / log-level=3 / input-csp=1 / input-res=1920x800 / interlace=0 / total-frames=0 / level-idc=51 / high-tier=1 / uhd-bd=0 / ref=4 / no-allow-non-conformance / no-repeat-headers / annexb / no-aud / no-hrd / info / hash=0 / no-temporal-layers / open-gop / min-keyint=23 / keyint=240 / bframes=10 / b-adapt=2 / b-pyramid / bframe-bias=0 / rc-lookahead=40 / lookahead-slices=5 / scenecut=40 / no-intra-refresh / ctu=64 / min-cu-size=8 / no-rect / no-amp / max-tu-size=32 / tu-inter-depth=2 / tu-intra-depth=2 / limit-tu=0 / rdoq-level=1 / dynamic-rd=0.00 / no-ssim-rd / signhide / no-tskip / nr-intra=0 / nr-inter=0 / no-constrained-intra / strong-intra-smoothing / max-merge=3 / limit-refs=3 / no-limit-modes / me=2 / subme=6 / merange=57 / temporal-mvp / weightp / weightb / no-analyze-src-pics / deblock=-2:-2 / no-sao / no-sao-non-deblock / rd=3 / no-early-skip / rskip / no-fast-intra / no-tskip-fast / no-cu-lossless / no-b-intra / no-splitrd-skip / rdpenalty=0 / psy-rd=2.00 / psy-rdoq=0.00 / no-rd-refine / analysis-reuse-mode=0 / no-lossless / cbqpoffs=0 / crqpoffs=0 / rc=cbr / bitrate=5000 / qcomp=0.60 / qpstep=4 / stats-write=0 / stats-read=0 / vbv-maxrate=5000 / vbv-bufsize=3571 / vbv-init=0.9 / ipratio=1.40 / pbratio=1.30 / aq-mode=2 / aq-strength=1.00 / cutree / zone-count=0 / no-strict-cbr / qg-size=32 / no-rc-grain / qpmax=69 / qpmin=0 / no-const-vbv / sar=1 / overscan=0 / videoformat=5 / range=0 / colorprim=2 / transfer=2 / colormatrix=2 / chromaloc=0 / display-window=0 / max-cll=0,0 / min-luma=0 / max-luma=1023 / log2-max-poc-lsb=8 / vui-timing-info / vui-hrd-info / slices=1 / opt-qp-pps / opt-ref-list-length-pps / no-multi-pass-opt-rps / scenecut-bias=0.05 / no-opt-cu-delta-qp / no-aq-motion / no-hdr / no-hdr-opt / no-dhdr10-opt / analysis-reuse-level=5 / scale-factor=0 / refine-intra=0 / refine-inter=0 / refine-mv=0 / no-limit-sao / ctu-info=0
Language : English
Default : Yes
Forced : No
Color range : Full
Audio #1
ID : 2
Format : AC-3
Format/Info : Audio Coding 3
Format settings, Endianness : Big
Codec ID : A_AC3
Duration : 2 h 26 min
Bit rate mode : Constant
Bit rate : 640 kb/s
Channel(s) : 6 channels
Channel positions : Front: L C R, Side: L R, LFE
Sampling rate : 48.0 kHz
Frame rate : 31.250 FPS (1536 SPF)
Bit depth : 16 bits
Compression mode : Lossy
Stream size : 669 MiB (11%)
Title : Dub
Language : Russian
Service kind : Complete Main
Default : Yes
Forced : No
Audio #2
ID : 3
Format : AC-3
Format/Info : Audio Coding 3
Format settings, Endianness : Big
Codec ID : A_AC3
Duration : 2 h 26 min
Bit rate mode : Constant
Bit rate : 384 kb/s
Channel(s) : 6 channels
Channel positions : Front: L C R, Side: L R, LFE
Sampling rate : 48.0 kHz
Frame rate : 31.250 FPS (1536 SPF)
Bit depth : 16 bits
Compression mode : Lossy
Stream size : 401 MiB (6%)
Language : English
Service kind : Complete Main
Default : No
Forced : No
Menu
00:00:00.000 : :00:00:00.000
00:04:18.507 : :00:04:18.508
00:09:46.627 : :00:09:46.627
00:15:16.206 : :00:15:16.206
00:19:13.569 : :00:19:13.569
00:26:04.229 : :00:26:04.229
00:31:37.770 : :00:31:37.770
00:35:43.306 : :00:35:43.307
00:41:37.536 : :00:41:37.536
00:45:45.617 : :00:45:45.617
00:50:14.094 : :00:50:14.094
00:55:02.715 : :00:55:02.715
00:58:31.174 : :00:58:31.174
01:03:41.358 : :01:03:41.358
01:10:02.197 : :01:10:02.197
01:14:30.924 : :01:14:30.924
01:18:48.848 : :01:18:48.848
01:22:17.598 : :01:22:17.598
01:24:55.089 : :01:24:55.089
01:28:03.194 : :01:28:03.194
01:32:34.173 : :01:32:34.173
01:37:40.228 : :01:37:40.228
01:42:37.567 : :01:42:37.567
01:47:54.133 : :01:47:54.133
01:53:48.112 : :01:53:48.112
01:57:30.960 : :01:57:30.960
02:01:27.988 : :02:01:27.988
02:05:42.159 : :02:05:42.159
02:09:42.732 : :02:09:42.732
02:13:16.029 : :02:13:16.029
02:14:47.120 : :02:14:47.120[/spoiler]
[spoiler="Гарри Поттер и Дары Смерти: Часть II / Harry Potter and the Deathly Hallows: Part 2 (2011) | D"][img]http://s018.radikal.ru/i519/1711/96/0684324e73c8.jpg[/img]
Информация о фильме
[b]Название: [/b]Гарри Поттер и Дары Смерти: Часть II
[b]Оригинальное название: [/b]Harry Potter and the Deathly Hallows: Part 2
[b]Год выхода: [/b]2011
[b]Жанр: [/b] фэнтези, приключения, семейный
[b]Режиссер: [/b]Дэвид Йэтс
[b]В ролях: [/b]Дэниэл Рэдклифф, Руперт Гринт, Эмма Уотсон, Рэйф Файнс, Алан Рикман, Хелена Бонем Картер, Том Фелтон, Гари Олдман, Майкл Гэмбон, Мэгги Смит
[b]О фильме:[/b]
В грандиозной последней главе битва между добрыми и злыми силами мира волшебников перерастает во всеобщую войну. Ставки ещё никогда не были так высоки, а поиск убежища — столь сложен. И быть может именно Гарри Поттеру придется пожертвовать всем в финальном сражении с Волан-де-Мортом. Способен ли наш герой спасти мир? И всё закончится здесь.
[url=http://www.imdb.com/title/tt1201607/][img]http://live-rutor.org/parse/s.rutor.org/imdb/pic/1201607.gif[/img][/url] [url=http://www.kinopoisk.ru/film/407636/][img]http://www.kinopoisk.ru/rating/407636.gif[/img][/url]
[b]Страна: [/b]США
[b]Студия: [/b]Warner Bros. Pictures
[b]Продолжительность: [/b]02:10:27
[b]Перевод: [/b]Профессиональный дублированный
Файл
[b]Кодек: [/b]HEVC x265 10 bit
[b]Качество: [/b]BDRip-HEVC 1080p
[b]Видео: [/b]1920x800, 23.978 кадр/сек, 4603 Кбит/сек, (Main 10@L5.1@High) 10bit
[b]Звук: [/b]
[b]Аудио1:[/b] Русская, AC3 640 Кбит/сек, 6 канала(ов),16bit 48,0 КГц
[b]Аудио2:[/b] English, AC3 448 Кбит/сек, 6 канала(ов),16bit 48,0 КГц
[b]Субтитры: [/b]Нет
[b]Навигация по главам: [/b]Есть
[b]Скриншоты:[/b]
[url=http://radikal.ru/fp/lyekvrzj9xdzs][img]http://s018.radikal.ru/i504/1711/bb/8df4d86891b0t.jpg[/img][/url] [url=http://radikal.ru/fp/1lvr2ahtgqaom][img]http://s03.radikal.ru/i176/1711/66/bf17e95ffdaet.jpg[/img][/url] [url=http://radikal.ru/fp/dv8jy6bqb2alq][img]http://s019.radikal.ru/i637/1711/40/4dcc00dc7292t.jpg[/img][/url] [url=http://radikal.ru/fp/4dhwl79xzp48k][img]http://s48.radikal.ru/i122/1711/79/0c16a5d6a9d9t.jpg[/img][/url]
[spoiler="Mediainfo"]General
Unique ID : 183468504695397047185506358411719975216 (0x8A06BFAB18CE904A8FEF5B35473DA130)
Complete name : T:HDFILMSHarry Potter.Collection [HEVC] 10bit8.Harry Potter and the Deathly Hallows. Part 2 (2011) BDRip 1080p [HEVC] 10bit.mkv
Format : Matroska
Format version : Version 4 / Version 2
File size : 5.19 GiB
Duration : 2 h 10 min
Overall bit rate : 5 693 kb/s
Movie name : rip_by_Cthulhu
Encoded date : UTC 2017-11-26 09:55:23
Writing application : mkvmerge v18.0.0 ('Apricity') 64-bit
Writing library : libebml v1.3.5 + libmatroska v1.4.8
Cover : Yes
Attachments : cover8.jpg
Video
ID : 1
Format : HEVC
Format/Info : High Efficiency Video Coding
Format profile : Main 10@L5.1@High
Codec ID : V_MPEGH/ISO/HEVC
Duration : 2 h 10 min
Bit rate : 4 603 kb/s
Width : 1 920 pixels
Height : 800 pixels
Display aspect ratio : 2.40:1
Frame rate mode : Constant
Frame rate : 23.976 (24000/1001) FPS
Color space : YUV
Chroma subsampling : 4:2:0
Bit depth : 10 bits
Bits/(Pixel*Frame) : 0.125
Stream size : 4.19 GiB (81%)
Writing library : x265 2.5+31-df2de6ea407d:[Windows][GCC 7.1.0][64 bit] 10bit
Encoding settings : cpuid=1050111 / frame-threads=5 / numa-pools=4 / wpp / no-pmode / no-pme / no-psnr / no-ssim / log-level=3 / input-csp=1 / input-res=1920x800 / interlace=0 / total-frames=0 / level-idc=51 / high-tier=1 / uhd-bd=0 / ref=4 / no-allow-non-conformance / no-repeat-headers / annexb / no-aud / no-hrd / info / hash=0 / no-temporal-layers / open-gop / min-keyint=23 / keyint=240 / bframes=10 / b-adapt=2 / b-pyramid / bframe-bias=0 / rc-lookahead=40 / lookahead-slices=5 / scenecut=40 / no-intra-refresh / ctu=64 / min-cu-size=8 / no-rect / no-amp / max-tu-size=32 / tu-inter-depth=2 / tu-intra-depth=2 / limit-tu=0 / rdoq-level=2 / dynamic-rd=0.00 / no-ssim-rd / signhide / no-tskip / nr-intra=0 / nr-inter=0 / no-constrained-intra / strong-intra-smoothing / max-merge=3 / limit-refs=3 / no-limit-modes / me=2 / subme=6 / merange=57 / temporal-mvp / weightp / weightb / no-analyze-src-pics / deblock=-3:-3 / no-sao / no-sao-non-deblock / rd=3 / no-early-skip / rskip / no-fast-intra / no-tskip-fast / no-cu-lossless / no-b-intra / no-splitrd-skip / rdpenalty=0 / psy-rd=1.00 / psy-rdoq=0.00 / no-rd-refine / analysis-reuse-mode=0 / no-lossless / cbqpoffs=0 / crqpoffs=0 / rc=crf / crf=18.0 / qcomp=0.60 / qpstep=4 / stats-write=0 / stats-read=0 / vbv-maxrate=50000 / vbv-bufsize=35714 / vbv-init=0.9 / crf-max=30.0 / crf-min=0.0 / ipratio=1.40 / pbratio=1.30 / aq-mode=1 / aq-strength=0.90 / cutree / zone-count=0 / no-strict-cbr / qg-size=32 / no-rc-grain / qpmax=69 / qpmin=0 / no-const-vbv / sar=1 / overscan=0 / videoformat=5 / range=0 / colorprim=2 / transfer=2 / colormatrix=2 / chromaloc=0 / display-window=0 / max-cll=0,0 / min-luma=0 / max-luma=1023 / log2-max-poc-lsb=8 / vui-timing-info / vui-hrd-info / slices=1 / opt-qp-pps / opt-ref-list-length-pps / no-multi-pass-opt-rps / scenecut-bias=0.05 / no-opt-cu-delta-qp / no-aq-motion / no-hdr / no-hdr-opt / no-dhdr10-opt / analysis-reuse-level=5 / scale-factor=0 / refine-intra=0 / refine-inter=0 / refine-mv=0 / no-limit-sao / ctu-info=0
Language : English
Default : Yes
Forced : No
Color range : Full
Audio #1
ID : 2
Format : AC-3
Format/Info : Audio Coding 3
Format settings, Endianness : Big
Codec ID : A_AC3
Duration : 2 h 10 min
Bit rate mode : Constant
Bit rate : 640 kb/s
Channel(s) : 6 channels
Channel positions : Front: L C R, Side: L R, LFE
Sampling rate : 48.0 kHz
Frame rate : 31.250 FPS (1536 SPF)
Bit depth : 16 bits
Compression mode : Lossy
Stream size : 597 MiB (11%)
Title : Dub
Language : Russian
Service kind : Complete Main
Default : Yes
Forced : No
Audio #2
ID : 3
Format : AC-3
Format/Info : Audio Coding 3
Format settings, Endianness : Big
Codec ID : A_AC3
Duration : 2 h 10 min
Bit rate mode : Constant
Bit rate : 448 kb/s
Channel(s) : 6 channels
Channel positions : Front: L C R, Side: L R, LFE
Sampling rate : 48.0 kHz
Frame rate : 31.250 FPS (1536 SPF)
Bit depth : 16 bits
Compression mode : Lossy
Stream size : 418 MiB (8%)
Language : English
Service kind : Complete Main
Default : No
Forced : No
Menu
00:00:00.000 : :00:00:00.000
00:02:58.219 : :00:02:58.219
00:06:21.172 : :00:06:21.172
00:10:21.871 : :00:10:21.871
00:14:27.992 : :00:14:27.992
00:20:05.621 : :00:20:05.621
00:22:47.783 : :00:22:47.783
00:25:38.620 : :00:25:38.620
00:30:46.803 : :00:30:46.803
00:34:33.654 : :00:34:33.654
00:40:32.263 : :00:40:32.263
00:45:52.249 : :00:45:52.249
00:50:15.470 : :00:50:15.470
00:54:41.027 : :00:54:41.027
00:59:01.245 : :00:59:01.245
01:03:42.067 : :01:03:42.067
01:07:06.063 : :01:07:06.063
01:11:24.488 : :01:11:24.488
01:14:38.932 : :01:14:38.932
01:23:40.848 : :01:23:40.848
01:29:17.727 : :01:29:17.727
01:31:25.020 : :01:31:25.020
01:36:37.666 : :01:36:37.666
01:41:09.104 : :01:41:09.104
01:46:42.312 : :01:46:42.312
01:50:18.361 : :01:50:18.361
01:54:16.682 : :01:54:16.682
01:58:12.876 : :01:58:12.876
02:10:26.609 : :02:10:26.609[/spoiler]
[b]Релиз от: [/b][b][color=green]Cthulhu[/color][/b][/spoiler][/spoiler][/spoiler][/spoiler][/spoiler][/spoiler][/spoiler][/spoiler]

   Похожие торренты   Торрент   Размер 
В этой теме нет новых непрочитанных сообщений. Гарри Поттер и Дары смерти / Harry Potter and the Deathly Hallows (2010, 2011) BDRip 1080p HEVC | 3D-Video | OU | D

24 | 14

19.95 ГБ

В этой теме нет новых непрочитанных сообщений. Гарри Поттер : Антология / Harry Potter : Antology (2001-2011) BDRip-AVC от R.G. HD-Films | 60 fps

575 | 228

31.63 ГБ

В этой теме нет новых непрочитанных сообщений. Гарри Поттер - Антология / Harry Potter - Anthology (2001-2011) PC | RePack от R.G. Catalyst

225 | 61

12.28 ГБ

В этой теме нет новых непрочитанных сообщений. Гарри Поттер и философский камень / Harry Potter and the Sorcerer's Stone (2001) WEB-DL 1080p | D, P, P2, A | Open Matte

0 | 0

22.78 ГБ

В этой теме нет новых непрочитанных сообщений. Гарри Поттер и философский камень / Harry Potter and the Sorcerer's Stone (2001) WEB-DL 1080p | D, P, P2, A | Open Matte

11 | 4

22.78 ГБ

В этой теме нет новых непрочитанных сообщений. Гарри Поттер и философский камень / Harry Potter and the Sorcerer's Stone (2001) BDRip 720p от NNNB | 60 fps

461 | 24

8.05 ГБ

В этой теме нет новых непрочитанных сообщений. Гарри Поттер и Философский камень / Harry Potter and the Sorcerer's Stone (2001) HDRip от Scarabey | P

117 | 3

1.45 ГБ




Вы не можете начинать темы
Вы не можете отвечать на сообщения
Вы не можете редактировать свои сообщения
Вы не можете удалять свои сообщения
Вы не можете добавлять вложения

Перейти:  
Контактная информация: rstracker[пёсик]yandex.ru
 Вход
ppkBB3cker v.2 © 2008-2014 @ PPK
[ Time : 0.027s | 18 Queries | GZIP : Off ]

cron