img image001 image001 image001 image001 image001 image001 image001 image001 image001 image001 image001 image001 image001 image001 image001

Planets Sun Sun Sun
Статистика раздачи
Автор: Nickolas3434 | Размер: 15.16 ГБ | Добавлен: 04 дек 2017
Раздают: 4    Качают: 2
Скачать торрент
Скачать торрент
Описание торрента

СообщениеДобавлено: 04 дек 2017 



Информация о фильме
Название: Смерть на Ниле
Оригинальное название: Death on the Nile
Год выхода: 1978
Жанр: драма, криминал, детектив
Режиссер: Джон Гиллермин
В ролях: Питер Устинов, Дэвид Найвен, Миа Фэрроу, Лоис Чайлз, Симон МакКоркиндэйл, Джордж Кеннеди, Мэгги Смит, Джек Уорден, Джон Финч, Анджела Лэнсбери, Оливия Хасси, Джейн Биркин, И.С. Джохар, Сэм Уэнамейкер, Бетт Дэвис, Гарри Эндрюс, Саид Джаффри, Барбара Хикс, Селия Аймри, Эндрю Мэнсон, Франсуа Гийом
О фильме:
Наследница многомиллионного состояния Линнет вышла замуж за жениха своей лучшей подруги Жаклин. Молодожены отправились в роскошный круиз на пароходе «Карнак» по Нилу. А Жаклин решила подпортить настроение новобрачным своим присутствием. На борту парохода оказалось немало других недоброжелателей Линнет. Ей удалось «завербовать» в телохранители знаменитого сыщика Эркюля Пуаро, совершавшего круиз на этом же пароходе. И Линнет нашли мертвой. В результате многочисленных продолжительных опросов и поисков Пуаро начал было предполагать, что близок к разгадке. К тому же нашли орудие преступления. Но начались новые убийства…

Страна: Великобритания
Студия: Mersham Productions Ltd., EMI Films
Продолжительность: 02:20:41
Перевод: Дублированный, профессиональный многоголосый, профессиональный двухголосый
Субтитры: Русские, английские
Файл
Кодек: x264
Качество: BDRip 1080p
Видео: AVC/H.264, 1920x1016, ~13.7 Mb/s
Аудио: 1 AC3, 2 ch, 192 kbps - Русский, дубляж со вставками двухголосого ТВ6
Аудио: 2 AC3, 2 ch, 192 kbps - Русский, многоголосый (Фильм-экспорт)
Аудио: 3 AC3, 2 ch, 192 kbps - Русский, двухголосый (НТВ+)
Аудио: 4 AC3, 2 ch, 192 kbps - Русский, двухголосый (ТВ-6)
Аудио: 5 AC3, 2 ch, 192 kbps - Украинский, двухголосый (1+1)
Аудио: 6 DTS, 2 ch, 768 kbps - Английский


Complete name : Death.on.the.Nile.(1978).BDRip.1080p.NNMClub.mkv
Format : Matroska
Format version : Version 2
File size : 15.2 GiB
Duration : 2 h 20 min
Overall bit rate : 15.5 Mb/s
Movie name : Death on the Nile.(1978).BDRip.1080p.NNMClub
Encoded date : UTC 2017-11-18 20:48:33
Writing application : mkvmerge v5.8.0 ('No Sleep / Pillow') built on Sep 2 2012 15:37:04
Writing library : libebml v1.2.3 + libmatroska v1.3.0
Video
ID : 1
Format : AVC
Format/Info : Advanced Video Codec
Format profile : High@L4.1
Format settings : CABAC / 4 Ref Frames
Format settings, CABAC : Yes
Format settings, RefFrames : 4 frames
Codec ID : V_MPEG4/ISO/AVC
Duration : 2 h 20 min
Bit rate : 13.7 Mb/s
Width : 1 920 pixels
Height : 1 016 pixels
Display aspect ratio : 1.890
Frame rate mode : Constant
Frame rate : 24.000 FPS
Color space : YUV
Chroma subsampling : 4:2:0
Bit depth : 8 bits
Scan type : Progressive
Bits/(Pixel*Frame) : 0.294
Stream size : 13.2 GiB (87%)
Title : Death on the Nile.(1978).BDRip.1080p
Writing library : x264 core 152 r2851 ba24899
Encoding settings : cabac=1 / ref=4 / deblock=1:-3:-3 / analyse=0x3:0x133 / me=umh / subme=10 / psy=1 / psy_rd=1.10:0.00 / mixed_ref=1 / me_range=32 / chroma_me=1 / trellis=2 / 8x8dct=1 / cqm=0 / deadzone=21,11 / fast_pskip=0 / chroma_qp_offset=-2 / threads=18 / lookahead_threads=3 / sliced_threads=0 / nr=0 / decimate=1 / interlaced=0 / bluray_compat=0 / constrained_intra=0 / bframes=8 / b_pyramid=2 / b_adapt=2 / b_bias=0 / direct=3 / weightb=1 / open_gop=0 / weightp=2 / keyint=240 / keyint_min=24 / scenecut=40 / intra_refresh=0 / rc_lookahead=60 / rc=2pass / mbtree=1 / bitrate=13745 / ratetol=1.0 / qcomp=0.60 / qpmin=0 / qpmax=69 / qpstep=4 / cplxblur=20.0 / qblur=0.5 / ip_ratio=1.30 / aq=3:0.75
Language : English
Default : Yes
Forced : No
Audio #1
ID : 2
Format : AC-3
Format/Info : Audio Coding 3
Format settings, Endianness : Big
Codec ID : A_AC3
Duration : 2 h 20 min
Bit rate mode : Constant
Bit rate : 192 kb/s
Channel(s) : 2 channels
Channel positions : Front: L R
Sampling rate : 48.0 kHz
Frame rate : 31.250 FPS (1536 SPF)
Bit depth : 16 bits
Compression mode : Lossy
Stream size : 193 MiB (1%)
Title : AC3 2.0 @ 192 kbps - Dub
Language : Russian
Service kind : Complete Main
Default : Yes
Forced : No
Audio #2
ID : 3
Format : AC-3
Format/Info : Audio Coding 3
Format settings, Endianness : Big
Codec ID : A_AC3
Duration : 2 h 20 min
Bit rate mode : Constant
Bit rate : 192 kb/s
Channel(s) : 2 channels
Channel positions : Front: L R
Sampling rate : 48.0 kHz
Frame rate : 31.250 FPS (1536 SPF)
Bit depth : 16 bits
Compression mode : Lossy
Stream size : 193 MiB (1%)
Title : AC3 2.0 @ 192 kbps - MVO, Фильм-экспорт
Language : Russian
Service kind : Complete Main
Default : No
Forced : No
Audio #3
ID : 4
Format : AC-3
Format/Info : Audio Coding 3
Format settings, Endianness : Big
Codec ID : A_AC3
Duration : 2 h 20 min
Bit rate mode : Constant
Bit rate : 192 kb/s
Channel(s) : 2 channels
Channel positions : Front: L R
Sampling rate : 48.0 kHz
Frame rate : 31.250 FPS (1536 SPF)
Bit depth : 16 bits
Compression mode : Lossy
Stream size : 193 MiB (1%)
Title : AC3 2.0 @ 192 kbps - DVO, НТВ+
Language : Russian
Service kind : Complete Main
Default : No
Forced : No
Audio #4
ID : 5
Format : AC-3
Format/Info : Audio Coding 3
Format settings, Endianness : Big
Codec ID : A_AC3
Duration : 2 h 20 min
Bit rate mode : Constant
Bit rate : 192 kb/s
Channel(s) : 2 channels
Channel positions : Front: L R
Sampling rate : 48.0 kHz
Frame rate : 31.250 FPS (1536 SPF)
Bit depth : 16 bits
Compression mode : Lossy
Stream size : 193 MiB (1%)
Title : AC3 2.0 @ 192 kbps - DVO, ТВ-6
Language : Russian
Service kind : Complete Main
Default : No
Forced : No
Audio #5
ID : 6
Format : AC-3
Format/Info : Audio Coding 3
Format settings, Endianness : Big
Codec ID : A_AC3
Duration : 2 h 20 min
Bit rate mode : Constant
Bit rate : 192 kb/s
Channel(s) : 2 channels
Channel positions : Front: L R
Sampling rate : 48.0 kHz
Frame rate : 31.250 FPS (1536 SPF)
Bit depth : 16 bits
Compression mode : Lossy
Stream size : 193 MiB (1%)
Title : AC3 2.0 @ 192 kbps - DVO, 1+1
Language : Ukrainian
Service kind : Complete Main
Default : No
Forced : No
Audio #6
ID : 7
Format : DTS
Format/Info : Digital Theater Systems
Mode : 16
Format settings, Endianness : Big
Codec ID : A_DTS
Duration : 2 h 20 min
Bit rate mode : Constant
Bit rate : 768 kb/s
Channel(s) : 2 channels
Channel positions : Front: L R
Sampling rate : 48.0 kHz
Frame rate : 93.750 FPS (512 SPF)
Bit depth : 24 bits
Compression mode : Lossy
Stream size : 770 MiB (5%)
Title : DTS 2.0 @ 768 kbps -Original
Language : English
Default : No
Forced : No
Text #1
ID : 8
Format : UTF-8
Codec ID : S_TEXT/UTF8
Codec ID/Info : UTF-8 Plain Text
Language : Russian
Default : No
Forced : No
Text #2
ID : 9
Format : UTF-8
Codec ID : S_TEXT/UTF8
Codec ID/Info : UTF-8 Plain Text
Language : English
Default : No
Forced : No
Text #3
ID : 10
Format : UTF-8
Codec ID : S_TEXT/UTF8
Codec ID/Info : UTF-8 Plain Text
Title : SDH
Language : English
Default : No
Forced : No
Menu
00:00:00.000 : en:00:00:00.000
00:12:01.500 : en:00:12:01.500
00:22:59.167 : en:00:22:59.167
00:34:36.917 : en:00:34:36.917
00:46:18.750 : en:00:46:18.750
00:57:40.833 : en:00:57:40.833
01:09:19.625 : en:01:09:19.625
01:19:45.625 : en:01:19:45.625
01:33:11.458 : en:01:33:11.458
01:44:28.917 : en:01:44:28.917
01:52:23.667 : en:01:52:23.667
02:07:14.875 : en:02:07:14.875





   Похожие торренты   Торрент   Размер 
В этой теме нет новых непрочитанных сообщений. Смерть на Ниле / Death on the Nile (1978) BDRip-AVC от Koenig | D, P, P2

27 | 6

3.55 ГБ

В этой теме нет новых непрочитанных сообщений. Смерть на Ниле / Death on the Nile (1978) BDRip от HQCLUB

156 | 32

2.18 ГБ

В этой теме нет новых непрочитанных сообщений. Смерть на Ниле / Роковое путешествие / Death on the Nile (1978) DVD9

0 | 33

7.31 ГБ

В этой теме нет новых непрочитанных сообщений. Смерть на Ниле / Роковое путешествие / Death on the Nile (1978) DVDRip-AVC от olegek70

188 | 13

2.75 ГБ

В этой теме нет новых непрочитанных сообщений. Маленькая смерть / The Little Death (2014) BDRip 1080p | L1

254 | 20

7.37 ГБ

В этой теме нет новых непрочитанных сообщений. Маленькая смерть / The Little Death (2014) BDRip 1080p | P, L1

461 | 43

7.63 ГБ

В этой теме нет новых непрочитанных сообщений. Внезапная смерть / Sudden Death (1995) BDRip 1080p | P, P2, A

1 | 28

15.68 ГБ




Вы не можете начинать темы
Вы не можете отвечать на сообщения
Вы не можете редактировать свои сообщения
Вы не можете удалять свои сообщения
Вы не можете добавлять вложения

Перейти:  
Для Мосгорсуда, Роскомнадзора и рекламодателей: mosgorsud-torrent[собачка]yandex.ru
 Вход
ppkBB3cker v.2 © 2008-2014 @ PPK
[ Time : 0.047s | 19 Queries | GZIP : Off ]

cron