img image001 image001 image001 image001 image001 image001 image001 image001 image001 image001 image001 image001 image001 image001 image001

Planets Sun Sun Sun
Статистика раздачи
Автор: Nickolas3434 | Размер: 1.49 ГБ | Добавлен: 04 дек 2017
Раздают: 64    Качают: 6
Скачать торрент
Скачать торрент
Описание торрента

СообщениеДобавлено: 04 дек 2017 

Информация о фильме
Название: Смотри по сторонам (Лучше берегись)
Оригинальное название: Better Watch Out
Год выпуска: 2016
Жанр: Триллер, комедия, ужасы
Режиссер: Крис Пековер
В ролях: Патрик Варбертон, Вирджиния Мэдсен, Дакре Монтгомери, Оливия ДеДжонг, Леви Миллер, Эд Оксенбульд, Брендан Клиркин, Тара Борг, Алекс Микич, Триша Мэри Хеннэси
Описание:
В семье Лернеров трудится милая молодая особа по имени Эшли. Она работает в качестве няни. Молоденькая девчонка моментально подружилась с их двенадцатилетним сыном, добилась взаимопонимания и уважения. Ее все устраивало: дом семейства располагался в тихом, спокойном и уютном пригороде, да и зарплата была достойная. Наступил предрождественский вечер, главная героиня отправилась к своему юному воспитаннику. Дружные ребята играли возле украшенной елки, резвились, весело проводили время и мирно общались. Неожиданно снаружи помещения послышались странные звуки и голоса. Смелая сиделка поняла, что незваные гости намерены вскрыть дверь. Незнакомые люди кричали и старались любым способом проникнуть внутрь. Но отважная девушка не растерялась и, схватив кухонный нож, готовилась противостоять злоумышленникам. Она понятия не имела, что ее ожидает. Это не просто грабители. В чем же заключается действительность?

Страна: Австралия, США
Студия: Storm Vision Entertainment, Best Medicine Productions
Продолжительность: 01:28:50
Перевод: Любительский (одноголосый, закадровый) | BadBajo
Субтитры: Английские
Файл
Формат: MKV
Качество: HDRip-AVC
Видео: MPEG-4 AVC, 1024x428 (2.40:1), 1574 Kbit/s, 24.000 fps, 0,150 bpp
Звук:
Аудио 1: 48 kHz, AC3, 5.1 ch, 384 Kbps | RUS
Аудио 2: 48 kHz, AC3, 5.1 ch, 448 Kbps | ENG
Без какой-либо рекламы
«Щедрик» — рождественская украинская народная песня, получившая всемирную популярность в музыкальной обработке Николая Леонтовича.
На английском языке известна под названием «Carol of the Bells». (Википедия)

General
Unique ID : 192980108236185930357203524003119874587 (0x912E9DEDF72DDBE5A6BF9E560DEDC21B)
Complete name : D:Better.Watch.Out.2017.AVO.BadBajo.HDRip.AVC.ExKinoRay.mkv
Format : Matroska
Format version : Version 2
File size : 1.49 GiB
Duration : 1 h 28 min
Overall bit rate : 2 402 kb/s
Movie name : Better Watch Out (2016) from ExKinoRay
Encoded date : UTC 2017-12-03 14:28:23
Writing application : mkvmerge v5.6.0 ('Kenya Kane') built on May 27 2012 16:44:04
Writing library : libebml v1.2.3 + libmatroska v1.3.0
Video
ID : 1
Format : AVC
Format/Info : Advanced Video Codec
Format profile : High@L4.1
Format settings, CABAC : Yes
Format settings, ReFrames : 12 frames
Codec ID : V_MPEG4/ISO/AVC
Duration : 1 h 28 min
Bit rate : 1 574 kb/s
Width : 1 024 pixels
Height : 428 pixels
Display aspect ratio : 2.40:1
Frame rate mode : Constant
Frame rate : 24.000 FPS
Color space : YUV
Chroma subsampling : 4:2:0
Bit depth : 8 bits
Scan type : Progressive
Bits/(Pixel*Frame) : 0.150
Stream size : 967 MiB (63%)
Title : Enigma
Writing library : x264 core 152 r2851 ba24899
Encoding settings : cabac=1 / ref=12 / deblock=1:-2:-2 / analyse=0x3:0x113 / me=umh / subme=10 / psy=1 / psy_rd=1.00:0.05 / mixed_ref=1 / me_range=32 / chroma_me=1 / trellis=2 / 8x8dct=1 / cqm=0 / deadzone=21,11 / fast_pskip=1 / chroma_qp_offset=-3 / threads=12 / lookahead_threads=3 / sliced_threads=0 / nr=0 / decimate=0 / interlaced=0 / bluray_compat=0 / constrained_intra=0 / bframes=10 / b_pyramid=2 / b_adapt=2 / b_bias=0 / direct=3 / weightb=1 / open_gop=0 / weightp=2 / keyint=240 / keyint_min=23 / scenecut=40 / intra_refresh=0 / rc_lookahead=40 / rc=2pass / mbtree=0 / bitrate=1574 / ratetol=1.0 / qcomp=0.65 / qpmin=0 / qpmax=51 / qpstep=4 / cplxblur=20.0 / qblur=0.5 / vbv_maxrate=50000 / vbv_bufsize=62500 / nal_hrd=none / filler=0 / ip_ratio=1.40 / pb_ratio=1.30 / aq=3:0.90
Language : English
Default : Yes
Forced : No
Color range : Limited
Color primaries : BT.709
Transfer characteristics : BT.709
Matrix coefficients : BT.709
Audio #1
ID : 2
Format : AC-3
Format/Info : Audio Coding 3
Mode extension : CM (complete main)
Format settings, Endianness : Big
Codec ID : A_AC3
Duration : 1 h 28 min
Bit rate mode : Constant
Bit rate : 384 kb/s
Channel(s) : 6 channels
Channel positions : Front: L C R, Side: L R, LFE
Sampling rate : 48.0 kHz
Frame rate : 31.250 FPS (1536 spf)
Compression mode : Lossy
Stream size : 244 MiB (16%)
Title : AVO (BadBajo)
Language : Russian
Default : Yes
Forced : No
Audio #2
ID : 3
Format : AC-3
Format/Info : Audio Coding 3
Mode extension : CM (complete main)
Format settings, Endianness : Big
Codec ID : A_AC3
Duration : 1 h 28 min
Bit rate mode : Constant
Bit rate : 448 kb/s
Channel(s) : 6 channels
Channel positions : Front: L C R, Side: L R, LFE
Sampling rate : 48.0 kHz
Frame rate : 31.250 FPS (1536 spf)
Compression mode : Lossy
Stream size : 285 MiB (19%)
Language : English
Default : No
Forced : No
Text
ID : 4
Format : UTF-8
Codec ID : S_TEXT/UTF8
Codec ID/Info : UTF-8 Plain Text
Title : Full
Language : English
Default : No
Forced : No


Релиз от:
Автор релиза:



   Похожие торренты   Торрент   Размер 
В этой теме нет новых непрочитанных сообщений. Смотри по сторонам / Лучше берегись / Better Watch Out (2016) WEB-DLRip-AVC от ExKinoRay | L1

102 | 0

746.7 МБ

В этой теме нет новых непрочитанных сообщений. Смотри по сторонам / Лучше берегись / Better Watch Out (2016) WEB-DLRip от MegaPeer | L1

0 | 0

1.44 ГБ

В этой теме нет новых непрочитанных сообщений. Смотри по сторонам / Лучше берегись / Better Watch Out (2016) BDRip 1080p

0 | 0

6.8 ГБ

В этой теме нет новых непрочитанных сообщений. Смотри по сторонам (Лучше берегись) / Better Watch Out (2016) WEB-DL 1080p | BadBajo

26 | 0

3.31 ГБ

В этой теме нет новых непрочитанных сообщений. Смотри по сторонам / Лучше берегись / Better Watch Out (2016) BDRip 1080p | L1

26 | 3

7.75 ГБ

В этой теме нет новых непрочитанных сообщений. Ты лучше смотри в оба / You Better Watch Out (1980) BDRip-AVC от E76 | A

86 | 105

3.11 ГБ

В этой теме нет новых непрочитанных сообщений. Ты лучше смотри в оба / Christmas Evil / You Better Watch Out (1980) BDRip от HQCLUB | A

4 | 1

1.45 ГБ




Вы не можете начинать темы
Вы не можете отвечать на сообщения
Вы не можете редактировать свои сообщения
Вы не можете удалять свои сообщения
Вы не можете добавлять вложения

Перейти:  
Для Мосгорсуда, Роскомнадзора и рекламодателей: mosgorsud-torrent[собачка]yandex.ru
 Вход
ppkBB3cker v.2 © 2008-2014 @ PPK
[ Time : 0.048s | 19 Queries | GZIP : Off ]

cron