img image001 image001 image001 image001 image001 image001 image001 image001 image001 image001 image001 image001 image001 image001 image001

Planets Sun Sun Sun
Статистика раздачи
Автор: Nickolas3434 | Размер: 11.64 ГБ | Добавлен: 04 дек 2017
Раздают: 161    Качают: 16
Скачать торрент
Скачать торрент
Описание торрента

СообщениеДобавлено: 04 дек 2017 

«Chip Happens»
Информация о фильме
Название: Калифорнийский дорожный патруль
Оригинальное название: CHIPS
Год выхода: 2017
Жанр: Боевик, комедия, криминал
Режиссер: Дэкс Шепард
В ролях: Майкл Пенья, Дэкс Шепард, Джессика МакНэми, Адам Броди, Райан Хансен, Кристен Белл, Джэми Бок, Джастин Чатвин, Камерон Крус, Клэй Каллен
О фильме:
Агент ФБР, специалист по работе под прикрытием и охмурению женщин, получает новое задание — провести внутренне расследование в калифорнийском дорожном патруле. Банда на скоростных мотоциклах грабит инкассаторские автомобили, и ФБР подозревает, что им помогает кто-то из своих. Новую личность агента под прикрытием зовут Френк Пончарелло, и теперь он патрулирует дороги солнечной Калифорнии. В напарники ему достается принципиальный новичок и бывший мотогонщик Джон, на которого без слёз не взглянешь — парень перенёс кучу операций, поэтому жить не может без обезболивающих.

Страна: США
Студия: Primate Pictures, Warner Bros. Pictures
Продолжительность: 01:40:51
Перевод:
Дублированный | iTunes
Авторский (одноголосый, закадровый) | М. Яроцкий
Файл
Качество: BDRip 1080p
Формат: MKV
Кодек: MPEG-4 AVC
Видео: 1920x1080 (16:9), 23,976 fps, MPEG-4 AVC ~ 14,9 Мbps avg, 0.299 bit/pixel
Аудио: AC3, 48,0 kHz, 6 ch, ~384.00 kbps avg | русский | iTunes
Аудио: AC3, 48,0 kHz, 6 ch, ~640.00 kbps avg | русский | М. Яроцкий
Аудио: AC3, 48,0 kHz, 6 ch, ~640.00 kbps avg | английский | Оригинал
Субтитры: Русские, английские
Общее
Уникальный идентификатор : 248506106823051810407610526434044108530 (0xBAF489061A24206EA634F5A78C6B5EF2)
Полное имя : CHIPS.2017.1080p.BluRay.x264.Rus.Eng.mkv
Формат : Matroska
Версия формата : Version 4 / Version 2
Размер файла : 11,6 Гбайт
Продолжительность : 1 ч. 40 м.
Общий поток : 16,5 Мбит/сек
Название фильма : Калифорнийский дорожный патруль (2017)
Дата кодирования : UTC 2017-12-04 05:54:45
Программа кодирования : mkvmerge v9.7.1 ('Pandemonium') 64bit
Библиотека кодирования : libebml v1.3.4 + libmatroska v1.4.5
Attachments : K.O.P.S.jpg
Видео
Идентификатор : 1
Формат : AVC
Формат/Информация : Advanced Video Codec
Профиль формата : High@L4.1
Параметр CABAC формата : Да
Параметр ReFrames формата : 4 кадра
Идентификатор кодека : V_MPEG4/ISO/AVC
Продолжительность : 1 ч. 40 м.
Битрейт : 14,9 Мбит/сек
Ширина : 1920 пикселей
Высота : 1080 пикселей
Соотношение сторон : 16:9
Режим частоты кадров : Постоянный
Частота кадров : 23,976 (24000/1001) кадра/сек
Цветовое пространство : YUV
Субдискретизация насыщенности : 4:2:0
Битовая глубина : 8 бит
Тип развёртки : Прогрессивная
Бит/(Пиксели*Кадры) : 0.299
Размер потока : 10,5 Гбайт (90%)
Заголовок : CHIPS.2017.1080p.BluRay.x264.Rus.Eng
Библиотека кодирования : x264 core 150 r2833 df79067
Настройки программы : cabac=1 / ref=4 / deblock=1:-3:-3 / analyse=0x3:0x113 / me=umh / subme=10 / psy=1 / psy_rd=1.04:0.00 / mixed_ref=1 / me_range=32 / chroma_me=1 / trellis=2 / 8x8dct=1 / cqm=1 / deadzone=21,11 / fast_pskip=0 / chroma_qp_offset=-1 / threads=12 / lookahead_threads=2 / sliced_threads=0 / nr=0 / decimate=1 / interlaced=0 / bluray_compat=0 / constrained_intra=0 / bframes=8 / b_pyramid=2 / b_adapt=2 / b_bias=0 / direct=3 / weightb=1 / open_gop=0 / weightp=2 / keyint=230 / keyint_min=23 / scenecut=40 / intra_refresh=0 / rc_lookahead=40 / rc=crf / mbtree=0 / crf=17.6 / qcomp=0.66 / qpmin=10 / qpmax=69 / qpstep=4 / vbv_maxrate=62500 / vbv_bufsize=78125 / crf_max=0.0 / nal_hrd=none / filler=0 / ip_ratio=1.30 / pb_ratio=1.20 / aq=1:0.74
Язык : English
Default : Да
Forced : Нет
Аудио #1
Идентификатор : 2
Формат : AC-3
Формат/Информация : Audio Coding 3
Параметр Endianness формата : Big
Идентификатор кодека : A_AC3
Продолжительность : 1 ч. 40 м.
Вид битрейта : Постоянный
Битрейт : 384 Кбит/сек
Каналы : 6 каналов
Расположение каналов : Front: L C R, Side: L R, LFE
Частота : 48,0 КГц
Частота кадров : 31,250 кадров/сек (1536 spf)
Битовая глубина : 16 бит
Метод сжатия : С потерями
Размер потока : 277 Мбайт (2%)
Заголовок : iTunes
Язык : Russian
Default : Да
Forced : Нет
Аудио #2
Идентификатор : 3
Формат : AC-3
Формат/Информация : Audio Coding 3
Параметр Endianness формата : Big
Идентификатор кодека : A_AC3
Продолжительность : 1 ч. 40 м.
Вид битрейта : Постоянный
Битрейт : 640 Кбит/сек
Каналы : 6 каналов
Расположение каналов : Front: L C R, Side: L R, LFE
Частота : 48,0 КГц
Частота кадров : 31,250 кадров/сек (1536 spf)
Битовая глубина : 16 бит
Метод сжатия : С потерями
Размер потока : 462 Мбайт (4%)
Заголовок : Яроцкий
Язык : Russian
Default : Нет
Forced : Нет
Аудио #3
Идентификатор : 4
Формат : AC-3
Формат/Информация : Audio Coding 3
Параметр Endianness формата : Big
Идентификатор кодека : A_AC3
Продолжительность : 1 ч. 40 м.
Вид битрейта : Постоянный
Битрейт : 640 Кбит/сек
Каналы : 6 каналов
Расположение каналов : Front: L C R, Side: L R, LFE
Частота : 48,0 КГц
Частота кадров : 31,250 кадров/сек (1536 spf)
Битовая глубина : 16 бит
Метод сжатия : С потерями
Размер потока : 462 Мбайт (4%)
Язык : English
Default : Нет
Forced : Нет
Текст #1
Идентификатор : 5
Формат : UTF-8
Идентификатор кодека : S_TEXT/UTF8
Идентификатор кодека/Информация : UTF-8 Plain Text
Продолжительность : 1 ч. 38 м.
Битрейт : 4 бит/сек
ElementCount : 71
Размер потока : 3,03 Кбайт (0%)
Заголовок : forced
Язык : Russian
Default : Да
Forced : Да
Текст #2
Идентификатор : 6
Формат : UTF-8
Идентификатор кодека : S_TEXT/UTF8
Идентификатор кодека/Информация : UTF-8 Plain Text
Продолжительность : 1 ч. 40 м.
Битрейт : 122 бит/сек
ElementCount : 1867
Размер потока : 90,1 Кбайт (0%)
Заголовок : full
Язык : Russian
Default : Нет
Forced : Нет
Текст #3
Идентификатор : 7
Формат : UTF-8
Идентификатор кодека : S_TEXT/UTF8
Идентификатор кодека/Информация : UTF-8 Plain Text
Продолжительность : 1 ч. 37 м.
Битрейт : 82 бит/сек
ElementCount : 1871
Размер потока : 58,8 Кбайт (0%)
Язык : English
Default : Нет
Forced : Нет
Текст #4
Идентификатор : 8
Формат : UTF-8
Идентификатор кодека : S_TEXT/UTF8
Идентификатор кодека/Информация : UTF-8 Plain Text
Продолжительность : 1 ч. 37 м.
Битрейт : 88 бит/сек
ElementCount : 2038
Размер потока : 63,5 Кбайт (0%)
Заголовок : SDH
Язык : English
Default : Нет
Forced : Нет
Меню
00:00:00.000 : en:Chapter 1
00:10:48.356 : en:Chapter 2
00:19:28.959 : en:Chapter 3
00:29:58.005 : en:Chapter 4
00:39:53.600 : en:Chapter 5
00:50:45.668 : en:Chapter 6
01:02:38.421 : en:Chapter 7
01:13:40.249 : en:Chapter 8
01:25:41.386 : en:Chapter 9
01:37:41.939 : en:Chapter 10


[/hide]



   Похожие торренты   Торрент   Размер 
В этой теме нет новых непрочитанных сообщений. Калифорнийский дорожный патруль / CHIPS (2017) BDRip 1080p от ExKinoRay | iTunes

398 | 42

10.48 ГБ

В этой теме нет новых непрочитанных сообщений. Калифорнийский дорожный патруль / CHIPS (2017) BDRemux 1080p от ExKinoRay | D, A | iTunes

25 | 5

29.7 ГБ

В этой теме нет новых непрочитанных сообщений. Калифорнийский дорожный патруль / CHIPS (2017) BDRip от ExKinoRay | iTunes

137 | 8

1.41 ГБ

В этой теме нет новых непрочитанных сообщений. Калифорнийский дорожный патруль / CHIPS (2017) BDRip 720p | D, A | iTunes

800 | 56

6.09 ГБ

В этой теме нет новых непрочитанных сообщений. Калифорнийский дорожный патруль / CHIPS (2017) BDRip 720p от HELLYWOOD | iTunes

286 | 21

5.71 ГБ

В этой теме нет новых непрочитанных сообщений. Калифорнийский дорожный патруль / CHIPS (2017) BDRip 1080p | L

218 | 12

7.5 ГБ

В этой теме нет новых непрочитанных сообщений. Калифорнийский дорожный патруль / CHIPS (2017) BDRip 1080p | L

87 | 6

6.7 ГБ




Вы не можете начинать темы
Вы не можете отвечать на сообщения
Вы не можете редактировать свои сообщения
Вы не можете удалять свои сообщения
Вы не можете добавлять вложения

Перейти:  
Для Мосгорсуда, Роскомнадзора и рекламодателей: mosgorsud-torrent[собачка]yandex.ru
 Вход
ppkBB3cker v.2 © 2008-2014 @ PPK
[ Time : 0.034s | 20 Queries | GZIP : Off ]

cron