img image001 image001 image001 image001 image001 image001 image001 image001 image001 image001 image001 image001 image001 image001 image001

Planets Sun Sun Sun
Статистика раздачи
Автор: Nickolas3434 | Размер: 8.74 ГБ | Добавлен: 04 дек 2017
Раздают: 249    Качают: 24
Скачать торрент
Скачать торрент
Описание торрента

СообщениеДобавлено: 04 дек 2017 

Информация о фильме
Название: Тельма
Оригинальное название: Thelma
Год выхода: 2017
Жанр: драма, мелодрама, детектив
Режиссер: Йоаким Триер
В ролях: Элли Харбоа, Кая Уилкинс, Хенрик Рафаелсен, Эллен Доррит Петерсен, Людвиг Альгебак, Изабель Кристин Андресен, Камилла Бельсвик, Ларс Берге, Ванесса Боргли, Сигве Бёэ
Описание: Тельма поступает в университет и впервые начинает жить отдельно от родителей, гиперопекающих христиан. Девушка не поддается соблазнам, не пьет и не курит, но одному соблазну противостоять не может — ей очень нравится сокурсница Аня. Пробуждающиеся чувства и желания внезапно высвобождают ее пугающие тёмные способности. Когда подруга Тельмы пропадает, девушка осознает, что это может быть ее виной…

Страна: Норвегия, Франция, Дания, Швеция
Продолжительность: 01:56:02
Перевод: Субтитры
Файл
Качество: BDRip 1080p
Видео: 1920x808 at 23.976 fps, x264@L4.1, 9280 kbps
Звук: 48 kHz, 6 ch, DTS @ 1509 kbps | Bokmål, Norwegian
Субтитры: русские, норвежские

Общее
Уникальный идентификатор : 212230661740787931353078289129084062000 (0x9FAA237EFBDF60359819888694988930)
Полное имя : Thelma.2017.BluRay.1080p.mkv
Формат : Matroska
Версия формата : Version 4 / Version 2
Размер файла : 8,74 Гбайт
Продолжительность : 1 ч. 56 м.
Общий поток : 10,8 Мбит/сек
Дата кодирования : UTC 2017-12-04 08:10:36
Программа кодирования : mkvmerge v18.0.0 ('Apricity') 32-bit
Библиотека кодирования : libebml v1.3.5 + libmatroska v1.4.8
DURATION : 01:46:22.853000000
NUMBER_OF_FRAMES : 536
NUMBER_OF_BYTES : 31117
_STATISTICS_WRITING_APP : mkvmerge v18.0.0 ('Apricity') 32-bit
_STATISTICS_WRITING_DATE_UTC : 2017-12-04 08:10:36
_STATISTICS_TAGS : BPS DURATION NUMBER_OF_FRAMES NUMBER_OF_BYTES
Видео
Идентификатор : 1
Формат : AVC
Формат/Информация : Advanced Video Codec
Профиль формата : High@L4.1
Параметр CABAC формата : Да
Параметр ReFrames формата : 5 кадров
Идентификатор кодека : V_MPEG4/ISO/AVC
Продолжительность : 1 ч. 56 м.
Битрейт : 9280 Кбит/сек
Ширина : 1920 пикселей
Высота : 808 пикселей
Соотношение сторон : 2,40:1
Режим частоты кадров : Постоянный
Частота кадров : 23,976 кадра/сек
Цветовое пространство : YUV
Субдискретизация насыщенности : 4:2:0
Битовая глубина : 8 бит
Тип развёртки : Прогрессивная
Бит/(Пиксели*Кадры) : 0.249
Размер потока : 7,35 Гбайт (84%)
Библиотека кодирования : x264 core 152 r2851 ba24899
Настройки программы : cabac=1 / ref=5 / deblock=1:0:0 / analyse=0x3:0x133 / me=umh / subme=7 / psy=1 / psy_rd=1.00:0.00 / mixed_ref=1 / me_range=16 / chroma_me=1 / trellis=1 / 8x8dct=1 / cqm=0 / deadzone=21,11 / fast_pskip=0 / chroma_qp_offset=-2 / threads=18 / lookahead_threads=3 / sliced_threads=0 / nr=0 / decimate=1 / interlaced=0 / bluray_compat=0 / constrained_intra=0 / bframes=3 / b_pyramid=2 / b_adapt=1 / b_bias=0 / direct=1 / weightb=1 / open_gop=0 / weightp=2 / keyint=250 / keyint_min=23 / scenecut=40 / intra_refresh=0 / rc_lookahead=40 / rc=2pass / mbtree=1 / bitrate=9280 / ratetol=1.0 / qcomp=0.60 / qpmin=0 / qpmax=69 / qpstep=4 / cplxblur=20.0 / qblur=0.5 / ip_ratio=1.40 / aq=1:1.00
Язык : Norwegian
Default : Да
Forced : Нет
DURATION : 01:56:02.367000000
NUMBER_OF_FRAMES : 166930
NUMBER_OF_BYTES : 8072669048
_STATISTICS_WRITING_APP : mkvmerge v18.0.0 ('Apricity') 32-bit
_STATISTICS_WRITING_DATE_UTC : 2017-12-04 08:10:36
_STATISTICS_TAGS : BPS DURATION NUMBER_OF_FRAMES NUMBER_OF_BYTES
Аудио
Идентификатор : 2
Формат : DTS
Формат/Информация : Digital Theater Systems
Режим : 16
Параметр Endianness формата : Big
Идентификатор кодека : A_DTS
Продолжительность : 1 ч. 56 м.
Вид битрейта : Постоянный
Битрейт : 1509 Кбит/сек
Каналы : 6 каналов
Расположение каналов : Front: L C R, Side: L R, LFE
Частота : 48,0 КГц
Битовая глубина : 24 бит
Метод сжатия : С потерями
Размер потока : 1,22 Гбайт (14%)
Язык : Norwegian Bokmal
Default : Да
Forced : Нет
Текст #1
Идентификатор : 3
Формат : UTF-8
Идентификатор кодека : S_TEXT/UTF8
Идентификатор кодека/Информация : UTF-8 Plain Text
Язык : Russian
Default : Да
Forced : Нет
Текст #2
Идентификатор : 4
Формат : UTF-8
Идентификатор кодека : S_TEXT/UTF8
Идентификатор кодека/Информация : UTF-8 Plain Text
Язык : Norwegian
Default : Нет
Forced : Нет



   Похожие торренты   Торрент   Размер 
В этой теме нет новых непрочитанных сообщений. Тельма и Луиза / Thelma & Louise (1991) BDRip 1080p by msltel | P, A

61 | 5

18.48 ГБ

В этой теме нет новых непрочитанных сообщений. Тельма / Thelma (2017) TS | D

0 | 0

1.37 ГБ

В этой теме нет новых непрочитанных сообщений. Тельма и Луиза / Thelma & Louise (1991) BDRemux 1080p | P, A

5 | 12

30.4 ГБ

В этой теме нет новых непрочитанных сообщений. Тельма и Луиза / Thelma & Louise (1991) BDRip от HQ-ViDEO

24 | 4

2.18 ГБ

В этой теме нет новых непрочитанных сообщений. Тельма и Луиза / Thelma & Louise (1991) BDRip-AVC от Rulya74 | P, A

41 | 6

2.18 ГБ

В этой теме нет новых непрочитанных сообщений. Тельма и Луиза / Thelma & Louise (1991) BDRip от HQCLUB

3 | 2

2.18 ГБ

В этой теме нет новых непрочитанных сообщений. Тельма и Луиза / Thelma & Louise (1991) BDRip 1080р от Freeisland

29 | 4

5.93 ГБ




Вы не можете начинать темы
Вы не можете отвечать на сообщения
Вы не можете редактировать свои сообщения
Вы не можете удалять свои сообщения
Вы не можете добавлять вложения

Перейти:  
Для Мосгорсуда, Роскомнадзора и рекламодателей: mosgorsud-torrent[собачка]yandex.ru
 Вход
ppkBB3cker v.2 © 2008-2014 @ PPK
[ Time : 0.042s | 18 Queries | GZIP : Off ]

cron