img image001 image001 image001 image001 image001 image001 image001 image001 image001 image001 image001 image001 image001 image001 image001

Planets Sun Sun Sun
Статистика раздачи
Автор: Nickolas3434 | Размер: 7.75 ГБ | Добавлен: 04 дек 2017
Раздают: 26    Качают: 3
Скачать торрент
Скачать торрент
Описание торрента

СообщениеДобавлено: 04 дек 2017 

Информация о фильме
Название: Смотри по сторонам
Оригинальное название: Better Watch Out
Год выпуска: 2016
Жанр: ужасы, триллер
Режиссер: Крис Пековер
В ролях: Оливия ДеДжонг, Леви Миллер, Эд Оксенбульд, Алекс Микич, Дакре Монтгомери (Jeremy), Патрик Варбертон (Robert Lerner), Вирджиния Мэдсен, Alexandra Matusko (Scary Movie Girl), Georgia Holland (Scary Movie Girl), Beau Andre (The Mangler), Миши Фифер (Christmas Caroler), Тара Борг (Christmas Caroler)
О фильме:
В доме на тихой пригородной улочке няня пытается защитить двенадцатилетнего мальчика от взломщиков, но вскоре обнаруживает, что это далеко не обыкновенное вторжение.

MPAA: R - Лицам до 17 лет обязательно присутствие взрослого
Страна: Австралия, США
Студия: Storm Vision Entertainment, Best Medicine Productions
Продолжительность: 01:28:48
Перевод: Любительский (одноголосый, закадровый) А.Важенин [BadBajo]
Файл
Качество: BDRip 1080p | MTeam
Формат: Matroska
Видео: 1920х804 at 24.000 fps, x264, ~10600 kbps avg
Аудио#1: Russian: 48 kHz, AC3, 3/2 (L,C,R,l,r) + LFE ch, ~384 kbps avg |Любительский, А.Важенин|
Аудио#2: English: 48 kHz, DTS, 3/2 (L,C,R,l,r) + LFE ch, ~1509 kbps avg
Субтитры: English (SDH)
***Сохранены оригинальные главы как на Blu-ray.
***Релиз - batonchik@NNMClub.
Общее
Полное имя : Смотри по сторонам_Better Watch Out.2016.BDRip.H.264.1080p.NNMClub.mkv
Формат : Matroska
Версия формата : Version 4 / Version 2
Размер файла : 7,75 Гбайт
Продолжительность : 1 ч. 28 м.
Общий поток : 12,5 Мбит/сек
Название фильма : Смотри по сторонам_Better Watch Out.2016.BDRip.H.264.1080p.NNMClub
Дата кодирования : UTC 2017-12-02 17:25:46
Программа кодирования : mkvmerge v17.0.0 ('Be Ur Friend') 64-bit
Библиотека кодирования : libebml v1.3.5 + libmatroska v1.4.8
Видео
Идентификатор : 1
Формат : AVC
Формат/Информация : Advanced Video Codec
Профиль формата : High@L4.1
Настройки формата : CABAC / 5 Ref Frames
Параметр CABAC формата : Да
Параметр RefFrames формата : 5 кадров
Идентификатор кодека : V_MPEG4/ISO/AVC
Продолжительность : 1 ч. 28 м.
Битрейт : 10,6 Мбит/сек
Ширина : 1920 пикселей
Высота : 804 пикселя
Соотношение сторон : 2,40:1
Режим частоты кадров : Постоянный
Частота кадров : 24,000 кадра/сек
Цветовое пространство : YUV
Субдискретизация насыщенности : 4:2:0
Битовая глубина : 8 бит
Тип развёртки : Прогрессивная
Бит/(Пиксели*Кадры) : 0.286
Размер потока : 6,57 Гбайт (85%)
Заголовок : Смотри по сторонам_Better Watch Out.2016.BDRip.H.264.1080p.NNMClub
Библиотека кодирования : x264 core 148 r2597 e86f3a1
Настройки программы : cabac=1 / ref=5 / deblock=1:0:0 / analyse=0x3:0x113 / me=umh / subme=10 / psy=1 / psy_rd=1.05:0.10 / mixed_ref=1 / me_range=48 / chroma_me=1 / trellis=2 / 8x8dct=1 / cqm=0 / deadzone=21,11 / fast_pskip=0 / chroma_qp_offset=-2 / threads=12 / lookahead_threads=1 / sliced_threads=0 / nr=0 / decimate=1 / interlaced=0 / bluray_compat=0 / constrained_intra=0 / bframes=6 / b_pyramid=2 / b_adapt=2 / b_bias=0 / direct=3 / weightb=1 / open_gop=0 / weightp=2 / keyint=250 / keyint_min=24 / scenecut=40 / intra_refresh=0 / rc=2pass / mbtree=0 / bitrate=10611 / ratetol=2.0 / qcomp=0.70 / qpmin=0 / qpmax=69 / qpstep=4 / cplxblur=20.0 / qblur=0.5 / ip_ratio=1.40 / pb_ratio=1.30 / aq=2:1.00
Язык : English
Default : Да
Forced : Нет
Аудио #1
Идентификатор : 2
Формат : AC-3
Формат/Информация : Audio Coding 3
Параметр Endianness формата : Big
Идентификатор кодека : A_AC3
Продолжительность : 1 ч. 28 м.
Вид битрейта : Постоянный
Битрейт : 384 Кбит/сек
Каналы : 6 каналов
Расположение каналов : Front: L C R, Side: L R, LFE
Частота : 48,0 КГц
Частота кадров : 31,250 кадров/сек (1536 SPF)
Битовая глубина : 16 бит
Метод сжатия : С потерями
Размер потока : 244 Мбайт (3%)
Заголовок : Одноголосый авторский, А.Важенин (BadBajo)
Язык : Russian
ServiceKind/String : Complete Main
Default : Да
Forced : Нет
Аудио #2
Идентификатор : 3
Формат : DTS
Формат/Информация : Digital Theater Systems
Режим : 16
Параметр Endianness формата : Big
Идентификатор кодека : A_DTS
Продолжительность : 1 ч. 28 м.
Вид битрейта : Постоянный
Битрейт : 1509 Кбит/сек
Каналы : 6 каналов
Расположение каналов : Front: L C R, Side: L R, LFE
Частота : 48,0 КГц
Частота кадров : 93,750 кадра/сек (512 SPF)
Битовая глубина : 24 бит
Метод сжатия : С потерями
Размер потока : 958 Мбайт (12%)
Язык : English
Default : Нет
Forced : Нет
Текст
Идентификатор : 4
Формат : UTF-8
Идентификатор кодека : S_TEXT/UTF8
Идентификатор кодека/Информация : UTF-8 Plain Text
Продолжительность : 1 ч. 23 м.
Битрейт : 65 бит/сек
ElementCount : 1152
Размер потока : 40,2 Кбайт (0%)
Заголовок : SDH
Язык : English
Default : Нет
Forced : Нет
Меню
00:00:00.000 : en:00:00:00.000
00:06:29.500 : en:00:06:29.500
00:11:40.000 : en:00:11:40.000
00:21:11.000 : en:00:21:11.000
00:29:43.083 : en:00:29:43.083
00:33:19.083 : en:00:33:19.083
00:44:38.708 : en:00:44:38.708
00:54:49.625 : en:00:54:49.625
01:01:58.542 : en:01:01:58.542
01:09:15.292 : en:01:09:15.292
01:17:46.000 : en:01:17:46.000



   Похожие торренты   Торрент   Размер 
В этой теме нет новых непрочитанных сообщений. Смотри по сторонам / Лучше берегись / Better Watch Out (2016) BDRip 1080p

0 | 0

6.8 ГБ

В этой теме нет новых непрочитанных сообщений. Смотри по сторонам (Лучше берегись) / Better Watch Out (2016) WEB-DL 1080p | BadBajo

26 | 0

3.31 ГБ

В этой теме нет новых непрочитанных сообщений. Смотри по сторонам / Лучше берегись / Better Watch Out (2016) WEB-DLRip от MegaPeer | L1

0 | 0

1.44 ГБ

В этой теме нет новых непрочитанных сообщений. Смотри по сторонам / Лучше берегись / Better Watch Out (2016) HDRip-AVC от ExKinoRay | L1

64 | 6

1.49 ГБ

В этой теме нет новых непрочитанных сообщений. Смотри по сторонам / Лучше берегись / Better Watch Out (2016) WEB-DLRip-AVC от ExKinoRay | L1

102 | 0

746.7 МБ

В этой теме нет новых непрочитанных сообщений. Ты лучше смотри в оба / You Better Watch Out (1980) BDRip-AVC от E76 | A

86 | 105

3.11 ГБ

В этой теме нет новых непрочитанных сообщений. Ты лучше смотри в оба / Christmas Evil / You Better Watch Out (1980) BDRip от HQCLUB | A

4 | 1

1.45 ГБ




Вы не можете начинать темы
Вы не можете отвечать на сообщения
Вы не можете редактировать свои сообщения
Вы не можете удалять свои сообщения
Вы не можете добавлять вложения

Перейти:  
Для Мосгорсуда, Роскомнадзора и рекламодателей: mosgorsud-torrent[собачка]yandex.ru
 Вход
ppkBB3cker v.2 © 2008-2014 @ PPK
[ Time : 0.035s | 19 Queries | GZIP : Off ]

cron