img image001 image001 image001 image001 image001 image001 image001 image001 image001 image001 image001 image001 image001 image001 image001

Planets Sun Sun Sun
Статистика раздачи
Автор: Nickolas3434 | Размер: 30.46 ГБ | Добавлен: 04 дек 2017
Раздают: 6    Качают: 6
Скачать торрент
Скачать торрент
Описание торрента

СообщениеДобавлено: 04 дек 2017 


Название: Люди в черном
Оригинальное название: Men in Black
Год выхода: 1997
Жанр: фантастика, боевик, комедия
Режиссер: Барри Зонненфельд
В ролях: Томми Ли Джонс, Уилл Смит, Линда Фиорентино, Винсент Д’Онофрио, Рип Торн, Тони Шэлуб, Шиван Фэллон, Майк Нассбаум, Джон Гриз, Серхио Кальдерон
О фильме:
Они — самый большой секрет Земли. Они работают на неофициальное правительственное агентство, регулирующее деятельность инопланетян на Земле. Они — это лучшая, последняя и единственная линия защиты Земли от отбросов вселенной. Их работа секретна, их оружие совершенно, им нет равных, они не оставляют следов. Они — это Люди в черном.

Страна: США
Студия: Columbia Pictures
Продолжительность: 01:37:59
Перевод: профессиональный (дублированный), профессиональный (многоголосый), авторский (одноголосый)
Субтитры: русские
Файл
Формат: MKV
Качество: BDRemux 1080p | 4K Remastered
Видео: MPEG-4 AVC Video / 34764 kbps / 1920x1080 / 23.976 fps
Звук:
Аудио #01: Русский, Dolby Digital, 5.1, 448 kbps, 48 000 Hz - Дубляж
Аудио #02: Русский, Dolby Digital, 5.1, 448 kbps, 48 000 Hz - Многоголосый (R5)
Аудио #03: Русский, DTS-HD MA, 5.1, 2336 kbps, 48 000 Hz, 24-bit - Многоголосый (Карусель)
Аудио #04: Русский, DTS-HD MA, 5.1, 2340 kbps, 48 000 Hz, 24-bit - Авторский (А. Гаврилов)
Аудио #05: Русский, DTS-HD MA, 5.1, 2338 kbps, 48 000 Hz, 24-bit - Авторский (Ю. Живов)
Аудио #06: Английский, Dolby TrueHD Audio, 5.1, 1752 kbps, 48 000 Hz - Оригинал
Format : Matroska
Format version : Version 2
File size : 30.5 GiB
Duration : 1 h 37 min
Overall bit rate mode : Variable
Overall bit rate : 44.5 Mb/s
Movie name : Men in Black (Mastered in 4K) BDRemux
Encoded date : UTC 2017-12-04 17:34:22
Writing application : mkvmerge v4.9.1 ('Ich will') сборка от Jul 11 2011 23:53:15
Writing library : libebml v1.2.1 + libmatroska v1.1.1
Video
ID : 1
Format : AVC
Format/Info : Advanced Video Codec
Format profile : High@L4.1
Format settings, CABAC : Yes
Format settings, RefFrames : 2 frames
Codec ID : V_MPEG4/ISO/AVC
Duration : 1 h 37 min
Bit rate mode : Variable
Width : 1 920 pixels
Height : 1 080 pixels
Display aspect ratio : 16:9
Frame rate mode : Constant
Frame rate : 23.976 (24000/1001) FPS
Color space : YUV
Chroma subsampling : 4:2:0
Bit depth : 8 bits
Scan type : Progressive
Title : Люди в черном / Men in Black
Language : English
Default : Yes
Forced : No
Audio #1
ID : 2
Format : AC-3
Format/Info : Audio Coding 3
Format settings, Endianness : Big
Codec ID : A_AC3
Duration : 1 h 37 min
Bit rate mode : Constant
Bit rate : 448 kb/s
Channel(s) : 6 channels
Channel positions : Front: L C R, Side: L R, LFE
Sampling rate : 48.0 kHz
Frame rate : 31.250 FPS (1536 SPF)
Bit depth : 16 bits
Compression mode : Lossy
Stream size : 314 MiB (1%)
Title : Дубляж
Language : Russian
Service kind : Complete Main
Default : Yes
Forced : No
Audio #2
ID : 3
Format : AC-3
Format/Info : Audio Coding 3
Format settings, Endianness : Big
Codec ID : A_AC3
Duration : 1 h 37 min
Bit rate mode : Constant
Bit rate : 448 kb/s
Channel(s) : 6 channels
Channel positions : Front: L C R, Side: L R, LFE
Sampling rate : 48.0 kHz
Frame rate : 31.250 FPS (1536 SPF)
Bit depth : 16 bits
Compression mode : Lossy
Stream size : 314 MiB (1%)
Title : Многоголосый (R5)
Language : Russian
Service kind : Complete Main
Default : No
Forced : No
Audio #3
ID : 4
Format : DTS
Format/Info : Digital Theater Systems
Format profile : MA / Core
Mode : 16
Format settings, Endianness : Big
Codec ID : A_DTS
Duration : 1 h 37 min
Bit rate mode : Variable / Constant
Bit rate : Unknown / 1 509 kb/s
Channel(s) : 6 channels
Channel positions : Front: L C R, Side: L R, LFE
Sampling rate : 48.0 kHz
Frame rate : 93.750 FPS (512 SPF)
Bit depth : 16 bits
Compression mode : Lossless / Lossy
Title : Многоголосый (Карусель)
Language : Russian
Default : No
Forced : No
Audio #4
ID : 5
Format : DTS
Format/Info : Digital Theater Systems
Format profile : MA / Core
Mode : 16
Format settings, Endianness : Big
Codec ID : A_DTS
Duration : 1 h 37 min
Bit rate mode : Variable / Constant
Bit rate : Unknown / 1 509 kb/s
Channel(s) : 6 channels
Channel positions : Front: L C R, Side: L R, LFE
Sampling rate : 48.0 kHz
Frame rate : 93.750 FPS (512 SPF)
Bit depth : 16 bits
Compression mode : Lossless / Lossy
Title : Гаврилов
Language : Russian
Default : No
Forced : No
Audio #5
ID : 6
Format : DTS
Format/Info : Digital Theater Systems
Format profile : MA / Core
Mode : 16
Format settings, Endianness : Big
Codec ID : A_DTS
Duration : 1 h 37 min
Bit rate mode : Variable / Constant
Bit rate : Unknown / 1 509 kb/s
Channel(s) : 6 channels
Channel positions : Front: L C R, Side: L R, LFE
Sampling rate : 48.0 kHz
Frame rate : 93.750 FPS (512 SPF)
Bit depth : 16 bits
Compression mode : Lossless / Lossy
Title : Живов
Language : Russian
Default : No
Forced : No
Audio #6
ID : 7
Format : TrueHD
Codec ID : A_TRUEHD
Duration : 1 h 37 min
Bit rate mode : Variable
Maximum bit rate : 3 465 kb/s
Channel(s) : 6 channels
Channel positions : Front: L C R, Side: L R, LFE
Sampling rate : 48.0 kHz
Frame rate : 1 200.000 FPS (40 SPF)
Compression mode : Lossless
Title : Оригинал
Language : English
Default : No
Forced : No
Text
ID : 8
Format : PGS
Muxing mode : zlib
Codec ID : S_HDMV/PGS
Codec ID/Info : Picture based subtitle format used on BDs/HD-DVDs
Language : Russian
Default : No
Forced : No
Menu
00:00:00.000 : :Chapter 01
00:09:46.419 : :Chapter 02
00:12:46.807 : :Chapter 03
00:18:12.340 : :Chapter 04
00:25:31.446 : :Chapter 05
00:29:14.544 : :Chapter 06
00:37:19.195 : :Chapter 07
00:43:18.554 : :Chapter 08
00:49:58.328 : :Chapter 09
00:54:29.391 : :Chapter 10
01:00:51.522 : :Chapter 11
01:06:24.689 : :Chapter 12
01:08:55.548 : :Chapter 13
01:14:56.908 : :Chapter 14
01:19:39.149 : :Chapter 15
01:29:49.634 : :Chapter 16



   Похожие торренты   Торрент   Размер 
В этой теме нет новых непрочитанных сообщений. Люди в черном / Men in Black (1997) BDRip 720p | Remastered

251 | 11

4.37 ГБ

В этой теме нет новых непрочитанных сообщений. Люди в черном / Men in Black (1997) BDRip 1080p

202 | 27

4.37 ГБ

В этой теме нет новых непрочитанных сообщений. Люди в черном / Men in Black (1997) BDRip 1080p

12 | 16

12.29 ГБ

В этой теме нет новых непрочитанных сообщений. Люди в черном / Men in Black (1997) BDRip 1080p | D

37 | 10

9.57 ГБ

В этой теме нет новых непрочитанных сообщений. Люди в черном / Men in Black (1997) BDRip 1080p от Freeisland

39 | 13

6.34 ГБ

В этой теме нет новых непрочитанных сообщений. Люди в черном / Men in Black (1997) BDRip 1080p от Youtracker

61 | 8

9.35 ГБ

В этой теме нет новых непрочитанных сообщений. Люди в черном / Men in Black (1997) DVD9 | D, P

4 | 5

7.02 ГБ




Вы не можете начинать темы
Вы не можете отвечать на сообщения
Вы не можете редактировать свои сообщения
Вы не можете удалять свои сообщения
Вы не можете добавлять вложения

Перейти:  
Для Мосгорсуда, Роскомнадзора и рекламодателей: mosgorsud-torrent[собачка]yandex.ru
 Вход
ppkBB3cker v.2 © 2008-2014 @ PPK
[ Time : 5.239s | 19 Queries | GZIP : Off ]

cron