img image001 image001 image001 image001 image001 image001 image001 image001 image001 image001 image001 image001 image001 image001 image001

Planets Sun Sun Sun
Статистика раздачи
Автор: Nickolas3434 | Размер: 7.13 ГБ | Добавлен: 04 дек 2017
Раздают: 16    Качают: 2
Скачать торрент
Скачать торрент
Описание торрента

СообщениеДобавлено: 04 дек 2017 

Информация о фильме
✧ Название: Звуки шума
✧ Оригинальное название: Sound of Noise
✧ Год выхода: 2010
Жанр: триллер, мелодрама, комедия, криминал, музыка
✧ Выпущено: Швеция, Франция, Bliss, dfm Fiktion, Nordisk Film
✧ Продолжительность: 01:42:12
✧ Перевод: Профессиональный многоголосый, авторский одноголосый
✧ Режиссер: Ула Симонссон, Юханнес Шерне Нильссон
✧ В ролях: Бенгт Нилссон, Сэнна Перссон, Магнус Берьесон, Маркус Боидж, Йоханнес Бьерк, Фредерик Майр, Андерс Вестергард, Аксель Бергендаль, Нина Брундаль Уорнолф, Мартин Бергендаль

О фильме
Шесть эксцентричных барабанщиков, под предводительством гениальной Санны, начинают полномасштабную атаку на город. Они собираются устроить сокрушительный концерт, используя вместо музыкальных инструментов различные предметы, механизмы и даже людей. Горожане в панике, вокруг хаос, спокойная жизнь полностью дезорганизована! Расследование дела поручается инспектору полиции Амадеусу Варнебрингу, который люто ненавидит музыку. Именно поэтому новое задание становится для полицейского настоящей пыткой.


Файл
✧ Качество: BDRip 1080p
✧ Видео: MPEG-4 AVC, 1920x816 (2.35:1), 8679 Kbps, 24.000 fps
✧ Аудио 1: Russian: AC3 / 2.0 / 48 kHz / 224 kbps - MVO, R5
✧ Аудио 2: Russian: AC3 / 5.1 / 48 kHz / 448 kbps - AVO, Д. Строев
✧ Аудио 3: Ukrainian: AC3 / 2.0 / 48 kHz / 192 kbps - MVO, IHTEP
✧ Аудио 4: Swedish: AC3 / 5.1 / 48 kHz / 448 kbps - Оригинал
✧ Субтитры: Русские, английские, шведские
✧ Навигация по главам: есть

Общее
Уникальный идентификатор : 215801819592892123586692838780113376576 (0xA259EB2C09CA79E5AE36587C7D0DD540)
Полное имя : Sound.of.Noise.2010.BDRip.1080p.mkv
Формат : Matroska
Версия формата : Version 2
Размер файла : 7,13 Гбайт
Продолжительность : 1 ч. 42 м.
Общий поток : 9988 Кбит/сек
Название фильма : Sound of Noise (2010)
Дата кодирования : UTC 2017-12-04 17:24:45
Программа кодирования : mkvmerge v5.8.0 ('No Sleep / Pillow') built on Sep 2 2012 15:37:04
Библиотека кодирования : libebml v1.2.3 + libmatroska v1.3.0
Видео
Идентификатор : 1
Формат : AVC
Формат/Информация : Advanced Video Codec
Профиль формата : High@L4.1
Параметр CABAC формата : Да
Параметр RefFrames формата : 5 кадров
Идентификатор кодека : V_MPEG4/ISO/AVC
Продолжительность : 1 ч. 42 м.
Битрейт : 8679 Кбит/сек
Ширина : 1920 пикселей
Высота : 816 пикселей
Соотношение сторон : 2,35:1
Режим частоты кадров : Постоянный
Частота кадров : 24,000 кадра/сек
Цветовое пространство : YUV
Субдискретизация насыщенности : 4:2:0
Битовая глубина : 8 бит
Тип развёртки : Прогрессивная
Бит/(Пиксели*Кадры) : 0.231
Размер потока : 6,05 Гбайт (85%)
Заголовок : Sound of Noise (2010)
Библиотека кодирования : x264 core 148 r2638 7599210
Настройки программы : cabac=1 / ref=5 / deblock=1:-3:-3 / analyse=0x3:0x133 / me=umh / subme=11 / psy=1 / psy_rd=1.00:0.00 / mixed_ref=1 / me_range=32 / chroma_me=1 / trellis=2 / 8x8dct=1 / cqm=0 / deadzone=21,11 / fast_pskip=1 / chroma_qp_offset=-2 / threads=6 / lookahead_threads=1 / sliced_threads=0 / nr=0 / decimate=1 / interlaced=0 / bluray_compat=0 / constrained_intra=0 / bframes=8 / b_pyramid=2 / b_adapt=2 / b_bias=0 / direct=3 / weightb=1 / open_gop=0 / weightp=2 / keyint=240 / keyint_min=24 / scenecut=40 / intra_refresh=0 / rc_lookahead=60 / rc=2pass / mbtree=1 / bitrate=8679 / ratetol=1.0 / qcomp=0.60 / qpmin=0 / qpmax=69 / qpstep=4 / cplxblur=20.0 / qblur=0.5 / vbv_maxrate=50000 / vbv_bufsize=62500 / nal_hrd=none / filler=0 / ip_ratio=1.40 / aq=1:1.00
Язык : Swedish
Default : Да
Forced : Нет
Аудио #1
Идентификатор : 2
Формат : AC-3
Формат/Информация : Audio Coding 3
Параметр Endianness формата : Big
Идентификатор кодека : A_AC3
Продолжительность : 1 ч. 42 м.
Вид битрейта : Постоянный
Битрейт : 224 Кбит/сек
Каналы : 2 канала
Расположение каналов : Front: L R
Частота : 48,0 КГц
Частота кадров : 31,250 кадров/сек (1536 SPF)
Битовая глубина : 16 бит
Метод сжатия : С потерями
Размер потока : 164 Мбайт (2%)
Заголовок : MVO, R5
Язык : Russian
Default : Да
Forced : Нет
Аудио #2
Идентификатор : 3
Формат : AC-3
Формат/Информация : Audio Coding 3
Параметр Endianness формата : Big
Идентификатор кодека : A_AC3
Продолжительность : 1 ч. 42 м.
Вид битрейта : Постоянный
Битрейт : 448 Кбит/сек
Каналы : 6 каналов
Расположение каналов : Front: L C R, Side: L R, LFE
Частота : 48,0 КГц
Частота кадров : 31,250 кадров/сек (1536 SPF)
Битовая глубина : 16 бит
Метод сжатия : С потерями
Размер потока : 328 Мбайт (4%)
Заголовок : AVO, Д. Строев
Язык : Russian
Default : Нет
Forced : Нет
Аудио #3
Идентификатор : 4
Формат : AC-3
Формат/Информация : Audio Coding 3
Параметр Endianness формата : Big
Идентификатор кодека : A_AC3
Продолжительность : 1 ч. 42 м.
Вид битрейта : Постоянный
Битрейт : 192 Кбит/сек
Каналы : 2 канала
Расположение каналов : Front: L R
Частота : 48,0 КГц
Частота кадров : 31,250 кадров/сек (1536 SPF)
Битовая глубина : 16 бит
Метод сжатия : С потерями
Размер потока : 140 Мбайт (2%)
Заголовок : MVO, IHTEP
Язык : Ukrainian
Default : Нет
Forced : Нет
Аудио #4
Идентификатор : 5
Формат : AC-3
Формат/Информация : Audio Coding 3
Параметр Endianness формата : Big
Идентификатор кодека : A_AC3
Продолжительность : 1 ч. 42 м.
Вид битрейта : Постоянный
Битрейт : 448 Кбит/сек
Каналы : 6 каналов
Расположение каналов : Front: L C R, Side: L R, LFE
Частота : 48,0 КГц
Частота кадров : 31,250 кадров/сек (1536 SPF)
Битовая глубина : 16 бит
Метод сжатия : С потерями
Размер потока : 328 Мбайт (4%)
Заголовок : Original
Язык : Swedish
Default : Нет
Forced : Нет
Текст #1
Идентификатор : 6
Формат : UTF-8
Идентификатор кодека : S_TEXT/UTF8
Идентификатор кодека/Информация : UTF-8 Plain Text
Язык : Russian
Default : Нет
Forced : Нет
Текст #2
Идентификатор : 7
Формат : UTF-8
Идентификатор кодека : S_TEXT/UTF8
Идентификатор кодека/Информация : UTF-8 Plain Text
Язык : English
Default : Нет
Forced : Нет
Текст #3
Идентификатор : 8
Формат : UTF-8
Идентификатор кодека : S_TEXT/UTF8
Идентификатор кодека/Информация : UTF-8 Plain Text
Язык : Swedish
Default : Нет
Forced : Нет
Меню
00:00:00.000 : sv:Opening Credits
00:05:17.250 : sv:Think Bigger
00:14:31.167 : sv:Reception
00:22:55.458 : sv:Operation
00:31:27.500 : sv:Findings
00:41:41.333 : sv:Robbery
00:49:41.333 : sv:Chase
00:57:02.083 : sv:Concert
01:05:55.833 : sv:Memoirs
01:13:50.167 : sv:It’s Music
01:23:57.250 : sv:Sound of Noise
01:35:54.458 : sv:Final Credits



   Похожие торренты   Торрент   Размер 
В этой теме нет новых непрочитанных сообщений. Звуки шума / Sound of Noise (2010) BDRip 1080p от R.G. GoldenShara | Лицензия

2 | 2

4.36 ГБ

В этой теме нет новых непрочитанных сообщений. Звуки шума / Sound of Noise (2010) BDRip-AVC | P

0 | 0

743.89 МБ

В этой теме нет новых непрочитанных сообщений. Звуки шума / Sound of Noise (2010) BDRip-AVC от olegek70

8 | 8

2.07 ГБ

В этой теме нет новых непрочитанных сообщений. Звуки шума / Sound of Noise (2010) BDRip 720p от R.G. GoldenShara | Лицензия

0 | 11

2.18 ГБ

В этой теме нет новых непрочитанных сообщений. Звуки шума / Sound of Noise (2010) BDRemux | P, A

4 | 4

18.82 ГБ

В этой теме нет новых непрочитанных сообщений. Звуки шума / Sound of Noise (2010) DVD9

4 | 2

7.25 ГБ

В этой теме нет новых непрочитанных сообщений. Звуки шума / Sound of Noise (2010) HDRip от Scarabey | P

9 | 2

741.97 МБ




Вы не можете начинать темы
Вы не можете отвечать на сообщения
Вы не можете редактировать свои сообщения
Вы не можете удалять свои сообщения
Вы не можете добавлять вложения

Перейти:  
Для Мосгорсуда, Роскомнадзора и рекламодателей: mosgorsud-torrent[собачка]yandex.ru
 Вход
ppkBB3cker v.2 © 2008-2014 @ PPK
[ Time : 0.033s | 19 Queries | GZIP : Off ]

cron