img image001 image001 image001 image001 image001 image001 image001 image001 image001 image001 image001 image001 image001 image001 image001

Planets Sun Sun Sun
Статистика раздачи
Автор: Nickolas3434 | Размер: 26.78 ГБ | Добавлен: 04 дек 2017
Раздают: 5    Качают: 1
Скачать торрент
Скачать торрент
Описание торрента

СообщениеДобавлено: 04 дек 2017 

Аполлон 13 / Apollo 13
Страна: США
Студия: Imagine Entertainment, Universal Pictures
Жанр: драма, история, триллер
Год выпуска: 1995
Режиссер: Рон Ховард / Ron Howard
В ролях: Том Хэнкс, Билл Пэкстон, Кевин Бэйкон, Гэри Синиз, Эд Харрис, Кэтлин Куинлэн, Мэри Кейт Шеллхардт, Эмили Энн Ллойд, Мико Хьюз, Макс Эллиотт Слэйд
Описание: «Аполлон-13» должен стать третьим космическим кораблём, доставившим астронавтов на Луну. Однако через 2 дня на подлёте к цели на корабле произошла авария, которая не только поставила крест на высадке, но и сделала невозможным нормальное возвращение на Землю.

Продолжительность: 02:19:50
Перевод: Дублированный, Профессиональный (многоголосый закадровый), Профессиональный (двухголосый закадровый), Авторский (одноголосый закадровый)
Open matte! Видео адаптировано для просмотра на весь экран с соотношением сторон 16:9.
Сэмпл
Тип релиза: Hybrid 1080p (BLUEBIRD) - Bluray поверх HDTV
Контейнер: MKV
Видео: x264, 1920x1080 (16:9), 22.1 Mb/s, 23.976 fps, crf 18
Аудио:
#01: Russian DTS 5.1 @ 768 kbps (Дублированный)
#02: Russian DD 2.0 @ 192 kbps (MVO "1й Канал")
#03: Russian DD 2.0 @ 192 kbps (DVO "Премьер Видео")
#04: Russian DD 2.0 @ 192 kbps (MVO "СТС")
#05: Ukrainian DD 2.0 @ 192 kbps (MVO "Интер")
#06: Ukrainian DD 2.0 @ 192 kbps (MVO "НЛО-TV")
#07: Russian DTS 5.1 @ 1509 kbps (VO А. Гаврилов)
#08: Russian DTS 2.0 @ 192 kbps (VO А. Кашкин)
#09: English DTS 5.1 @ 1509 kbps (Оригинал)
#10: English DD 2.0 @ 192 kbps (Commentary with Ron Howard)
#11: English DD 2.0 @ 192 kbps (Commentary with Jim and Marilyn Lovell)
Субтитры: Russian (Forced, Full-length, Commentary with Ron Howard, Commentary with Jim and Marilyn), English (Regular, SDH, Commentary with Ron Howard, Commentary with Jim and Marilyn) - SRT





General
Complete name : Apollo.13.1995.Open.Matte.Hybrid.1080p-BLUEBIRD.mkv
Format : Matroska
Format version : Version 4 / Version 2
File size : 26.8 GiB
Duration : 2 h 19 min
Overall bit rate : 27.4 Mb/s
Movie name : Apollo 13 (1995) Open Matte
Encoded date : UTC 2017-11-29 14:22:31
Writing application : mkvmerge v17.0.0 ('Be Ur Friend') 64-bit
Writing library : libebml v1.3.5 + libmatroska v1.4.8
Cover : Yes
Attachments : cover
Video
ID : 1
Format : AVC
Format/Info : Advanced Video Codec
Format profile : High@L4.1
Format settings, CABAC : Yes
Format settings, RefFrames : 4 frames
Codec ID : V_MPEG4/ISO/AVC
Duration : 2 h 19 min
Bit rate : 22.1 Mb/s
Width : 1 920 pixels
Height : 1 080 pixels
Display aspect ratio : 16:9
Frame rate mode : Constant
Frame rate : 23.976 (24000/1001) FPS
Color space : YUV
Chroma subsampling : 4:2:0
Bit depth : 8 bits
Scan type : Progressive
Bits/(Pixel*Frame) : 0.444
Stream size : 21.6 GiB (81%)
Writing library : x264 core 152 r2851 ba24899
Encoding settings : cabac=1 / ref=4 / deblock=1:-3:-2 / analyse=0x3:0x113 / me=umh / subme=10 / psy=1 / psy_rd=1.15:0.05 / mixed_ref=1 / me_range=32 / chroma_me=1 / trellis=2 / 8x8dct=1 / cqm=0 / deadzone=21,11 / fast_pskip=1 / chroma_qp_offset=-3 / threads=12 / lookahead_threads=2 / sliced_threads=0 / nr=0 / decimate=1 / interlaced=0 / bluray_compat=0 / constrained_intra=0 / bframes=8 / b_pyramid=2 / b_adapt=2 / b_bias=0 / direct=1 / weightb=1 / open_gop=0 / weightp=2 / keyint=250 / keyint_min=23 / scenecut=40 / intra_refresh=0 / rc_lookahead=40 / rc=crf / mbtree=0 / crf=18.0 / qcomp=0.60 / qpmin=0 / qpmax=69 / qpstep=4 / vbv_maxrate=50000 / vbv_bufsize=62500 / crf_max=0.0 / nal_hrd=none / filler=0 / ip_ratio=1.40 / pb_ratio=1.30 / aq=1:1.00 / zones=192787,201176,crf=22
Language : English
Default : Yes
Forced : No
Color range : Limited
Color primaries : BT.709
Transfer characteristics : BT.709
Matrix coefficients : BT.709
Audio #1
ID : 2
Format : DTS
Format/Info : Digital Theater Systems
Mode : 16
Format settings, Endianness : Big
Codec ID : A_DTS
Duration : 2 h 19 min
Bit rate mode : Constant
Bit rate : 768 kb/s
Channel(s) : 6 channels
Channel positions : Front: L C R, Side: L R, LFE
Sampling rate : 48.0 kHz
Frame rate : 93.750 FPS (512 SPF)
Bit depth : 24 bits
Compression mode : Lossy
Stream size : 767 MiB (3%)
Title : Dub
Language : Russian
Default : Yes
Forced : No
Audio #2
ID : 3
Format : AC-3
Format/Info : Audio Coding 3
Format settings, Endianness : Big
Codec ID : A_AC3
Duration : 2 h 19 min
Bit rate mode : Constant
Bit rate : 192 kb/s
Channel(s) : 2 channels
Channel positions : Front: L R
Sampling rate : 48.0 kHz
Frame rate : 31.250 FPS (1536 SPF)
Bit depth : 16 bits
Compression mode : Lossy
Stream size : 192 MiB (1%)
Title : MVO (ORT)
Language : Russian
Service kind : Complete Main
Default : No
Forced : No
Audio #3
ID : 4
Format : AC-3
Format/Info : Audio Coding 3
Format settings, Endianness : Big
Codec ID : A_AC3
Duration : 2 h 19 min
Bit rate mode : Constant
Bit rate : 192 kb/s
Channel(s) : 2 channels
Channel positions : Front: L R
Sampling rate : 48.0 kHz
Frame rate : 31.250 FPS (1536 SPF)
Bit depth : 16 bits
Compression mode : Lossy
Stream size : 192 MiB (1%)
Title : DVO (Premier video)
Language : Russian
Service kind : Complete Main
Default : No
Forced : No
Audio #4
ID : 5
Format : AC-3
Format/Info : Audio Coding 3
Format settings, Endianness : Big
Codec ID : A_AC3
Duration : 2 h 19 min
Bit rate mode : Constant
Bit rate : 192 kb/s
Channel(s) : 2 channels
Channel positions : Front: L R
Sampling rate : 48.0 kHz
Frame rate : 31.250 FPS (1536 SPF)
Bit depth : 16 bits
Compression mode : Lossy
Stream size : 192 MiB (1%)
Title : MVO (STS)
Language : Russian
Service kind : Complete Main
Default : No
Forced : No
Audio #5
ID : 6
Format : AC-3
Format/Info : Audio Coding 3
Mode : Dolby Digital
Format settings, Endianness : Big
Codec ID : A_AC3
Duration : 2 h 19 min
Bit rate mode : Constant
Bit rate : 192 kb/s
Channel(s) : 2 channels
Channel positions : Front: L R
Sampling rate : 48.0 kHz
Frame rate : 31.250 FPS (1536 SPF)
Bit depth : 16 bits
Compression mode : Lossy
Stream size : 192 MiB (1%)
Title : MVO (Inter)
Language : Ukrainian
Service kind : Complete Main
Default : No
Forced : No
Audio #6
ID : 7
Format : AC-3
Format/Info : Audio Coding 3
Format settings, Endianness : Big
Codec ID : A_AC3
Duration : 2 h 19 min
Bit rate mode : Constant
Bit rate : 192 kb/s
Channel(s) : 2 channels
Channel positions : Front: L R
Sampling rate : 48.0 kHz
Frame rate : 31.250 FPS (1536 SPF)
Bit depth : 16 bits
Compression mode : Lossy
Stream size : 192 MiB (1%)
Title : MVO (NLO-TV)
Language : Ukrainian
Service kind : Complete Main
Default : No
Forced : No
Audio #7
ID : 8
Format : DTS
Format/Info : Digital Theater Systems
Mode : 16
Format settings, Endianness : Big
Codec ID : A_DTS
Duration : 2 h 19 min
Bit rate mode : Constant
Bit rate : 1 509 kb/s
Channel(s) : 6 channels
Channel positions : Front: L C R, Side: L R, LFE
Sampling rate : 48.0 kHz
Frame rate : 93.750 FPS (512 SPF)
Bit depth : 24 bits
Compression mode : Lossy
Stream size : 1.47 GiB (5%)
Title : AVO (Gavrilov)
Language : Russian
Default : No
Forced : No
Audio #8
ID : 9
Format : AC-3
Format/Info : Audio Coding 3
Format settings, Endianness : Big
Codec ID : A_AC3
Duration : 2 h 19 min
Bit rate mode : Constant
Bit rate : 192 kb/s
Channel(s) : 2 channels
Channel positions : Front: L R
Sampling rate : 48.0 kHz
Frame rate : 31.250 FPS (1536 SPF)
Bit depth : 16 bits
Compression mode : Lossy
Stream size : 192 MiB (1%)
Title : AVO (Kashkin)
Language : Russian
Service kind : Complete Main
Default : No
Forced : No
Audio #9
ID : 10
Format : DTS
Format/Info : Digital Theater Systems
Mode : 16
Format settings, Endianness : Big
Codec ID : A_DTS
Duration : 2 h 19 min
Bit rate mode : Constant
Bit rate : 1 509 kb/s
Channel(s) : 6 channels
Channel positions : Front: L C R, Side: L R, LFE
Sampling rate : 48.0 kHz
Frame rate : 93.750 FPS (512 SPF)
Bit depth : 24 bits
Compression mode : Lossy
Stream size : 1.47 GiB (5%)
Title : Original
Language : English
Default : No
Forced : No
Audio #10
ID : 11
Format : AC-3
Format/Info : Audio Coding 3
Mode : Dolby Digital
Format settings, Endianness : Big
Codec ID : A_AC3
Duration : 2 h 19 min
Bit rate mode : Constant
Bit rate : 192 kb/s
Channel(s) : 2 channels
Channel positions : Front: L R
Sampling rate : 48.0 kHz
Frame rate : 31.250 FPS (1536 SPF)
Bit depth : 16 bits
Compression mode : Lossy
Stream size : 192 MiB (1%)
Title : Commentary with Ron Howard
Language : English
Service kind : Complete Main
Default : No
Forced : No
Audio #11
ID : 12
Format : AC-3
Format/Info : Audio Coding 3
Mode : Dolby Digital
Format settings, Endianness : Big
Codec ID : A_AC3
Duration : 2 h 19 min
Bit rate mode : Constant
Bit rate : 192 kb/s
Channel(s) : 2 channels
Channel positions : Front: L R
Sampling rate : 48.0 kHz
Frame rate : 31.250 FPS (1536 SPF)
Bit depth : 16 bits
Compression mode : Lossy
Stream size : 192 MiB (1%)
Title : Commentary with Jim and Marilyn Lovell
Language : English
Service kind : Complete Main
Default : No
Forced : No
Text #1
ID : 13
Format : UTF-8
Codec ID : S_TEXT/UTF8
Codec ID/Info : UTF-8 Plain Text
Duration : 2 h 5 min
Bit rate : 2 b/s
Count of elements : 50
Stream size : 2.29 KiB (0%)
Title : Forced (rus)
Language : Russian
Default : Yes
Forced : No
Text #2
ID : 14
Format : UTF-8
Codec ID : S_TEXT/UTF8
Codec ID/Info : UTF-8 Plain Text
Duration : 2 h 13 min
Bit rate : 134 b/s
Count of elements : 1902
Stream size : 132 KiB (0%)
Title : rus
Language : Russian
Default : No
Forced : No
Text #3
ID : 15
Format : UTF-8
Codec ID : S_TEXT/UTF8
Codec ID/Info : UTF-8 Plain Text
Duration : 2 h 14 min
Bit rate : 156 b/s
Count of elements : 2065
Stream size : 155 KiB (0%)
Title : Commentary with Ron Howard (rus)
Language : Russian
Default : No
Forced : No
Text #4
ID : 16
Format : UTF-8
Codec ID : S_TEXT/UTF8
Codec ID/Info : UTF-8 Plain Text
Duration : 2 h 14 min
Bit rate : 175 b/s
Count of elements : 2190
Stream size : 172 KiB (0%)
Title : Commentary with Jim and Marilyn Lovell (rus)
Language : Russian
Default : No
Forced : No
Text #5
ID : 17
Format : UTF-8
Codec ID : S_TEXT/UTF8
Codec ID/Info : UTF-8 Plain Text
Duration : 2 h 13 min
Bit rate : 78 b/s
Count of elements : 1814
Stream size : 76.7 KiB (0%)
Title : eng
Language : English
Default : No
Forced : No
Text #6
ID : 18
Format : UTF-8
Codec ID : S_TEXT/UTF8
Codec ID/Info : UTF-8 Plain Text
Duration : 2 h 13 min
Bit rate : 82 b/s
Count of elements : 1841
Stream size : 80.5 KiB (0%)
Title : SDH (eng)
Language : English
Default : No
Forced : No
Text #7
ID : 19
Format : UTF-8
Codec ID : S_TEXT/UTF8
Codec ID/Info : UTF-8 Plain Text
Duration : 2 h 14 min
Bit rate : 104 b/s
Count of elements : 2049
Stream size : 104 KiB (0%)
Title : Commentary with Ron Howard (eng)
Language : English
Default : No
Forced : No
Text #8
ID : 20
Format : UTF-8
Codec ID : S_TEXT/UTF8
Codec ID/Info : UTF-8 Plain Text
Duration : 2 h 14 min
Bit rate : 110 b/s
Count of elements : 2141
Stream size : 108 KiB (0%)
Title : Commentary with Jim and Marilyn Lovell (eng)
Language : English
Default : No
Forced : No
Menu
00:00:00.000 : en:Chapter 1
00:09:38.745 : en:Chapter 2
00:19:49.021 : en:Chapter 3
00:34:21.560 : en:Chapter 4
00:45:15.045 : en:Chapter 5
00:49:37.808 : en:Chapter 6
01:02:00.049 : en:Chapter 7
01:05:52.982 : en:Chapter 8
01:10:05.034 : en:Chapter 9
01:15:08.637 : en:Chapter 10
01:17:07.790 : en:Chapter 11
01:19:41.277 : en:Chapter 12
01:35:12.207 : en:Chapter 13
01:39:10.778 : en:Chapter 14
01:48:21.162 : en:Chapter 15
01:56:42.028 : en:Chapter 16
01:58:49.623 : en:Chapter 17
02:05:17.677 : en:Chapter 18
02:09:06.906 : en:Chapter 19
02:14:05.871 : en:Chapter 20




   Похожие торренты   Торрент   Размер 
В этой теме нет новых непрочитанных сообщений. Аполлон 13 / Apollo 13 (1995) HDTVRip-AVC | D, P | Open Matte

4 | 0

4.37 ГБ

В этой теме нет новых непрочитанных сообщений. Аполлон 13 / Apollo 13 (1995) HDRip-AVC | D | Open Matte

9 | 0

747.4 МБ

В этой теме нет новых непрочитанных сообщений. Аполлон 13 / Apollo 13 (1995) HDRip-AVC | D | Open Matte

7 | 1

2.18 ГБ

В этой теме нет новых непрочитанных сообщений. Аполлон 13 / Apollo 13 (1995) HDTVRip от Scarabey | Open Matte | D

51 | 1

1.45 ГБ

В этой теме нет новых непрочитанных сообщений. Аполлон 13 / Apollo 13 (1995) HDTV 1080i | Open Matte | D, P, A

64 | 39

8.26 ГБ

В этой теме нет новых непрочитанных сообщений. Аполлон 13 / Apollo 13 (1995) BDRip 1080p

93 | 3

7.49 ГБ

В этой теме нет новых непрочитанных сообщений. Аполлон 13 / Apollo 13 (1995) BDRip 1080p от NNNB

164 | 41

7.94 ГБ




Вы не можете начинать темы
Вы не можете отвечать на сообщения
Вы не можете редактировать свои сообщения
Вы не можете удалять свои сообщения
Вы не можете добавлять вложения

Перейти:  
Для Мосгорсуда, Роскомнадзора и рекламодателей: mosgorsud-torrent[собачка]yandex.ru
 Вход
ppkBB3cker v.2 © 2008-2014 @ PPK
[ Time : 0.087s | 19 Queries | GZIP : Off ]

cron