img image001 image001 image001 image001 image001 image001 image001 image001 image001 image001 image001 image001 image001 image001 image001 image001

Planets Sun Sun Sun
Статистика раздачи
Автор: PriZraK | Размер: 744.86 МБ | Добавлен: 08 дек 2017
Раздают: 58    Качают: 2
Скачать торрент
Скачать торрент
Описание торрента

СообщениеДобавлено: 08 дек 2017 

Информация о фильме
Название: Сторожевая застава
Оригинальное название: Сторожова застава
Год выхода: 2017
Жанр: приключения, фэнтези
Режиссер: Юрий Ковалев
В ролях: Даниил Каменский, Ева Кошевая, Роман Луцкий, Олег Волощенко, Георгий Деревянский, Слава Красовская, Наталья Сумская, Александр Комаров, Ержан Нурымбет, Ерболат Тогузаков
О фильме :
В украинских Карпатах случилась аномалия, которой раньше не было за всю историю человечества. Солнечное затмение повлияло на то, что открылся межвременной портал, который перенёс мальчика Виктора в средневековую Киевскую Русь, в 1120 год от Рождества Христового. Там школьник находит славных легендарных богатырей, о реальном существовании которых никто не был уверен. Они должны бороться против армии половцев, которые хотят достичь победы любой ценой. Для этого они используют не только всё доступное для того времени оружие, а и чёрную магию и таинственные предметы. И им нужен Виктор, который по легендам должен открыть силу могущественного артефакта. Мальчик прекрасно вливается в эту среду и понимает, что от его действий в этой эпохе зависит судьба не только его будущего, но и всего человечества.

Страна: Украина
Студия: Film.UA, Кинодел
Продолжительность: 01:51:05
Перевод: Дублированный | iTunes
Файл
Формат: MKV
Качество: WEB-DLRip-AVC
Видео: MPEG-4 AVC, 768x320, ~ 860 Кбит/с
Аудио: AAC-LC, 2 ch, ~ 76 Кбит/с
Общее
Уникальный идентификатор : 244929096025064477930812152656679706707 (0xB843A0C67C182BB1830DCE9C9E30A053)
Полное имя : D:MOVIESStorozhevaja.zastava.2017.ExKinoRay.mkv
Формат : Matroska
Версия формата : Version 4 / Version 2
Размер файла : 745 Мбайт
Продолжительность : 1 ч. 51 м.
Общий поток : 937 Кбит/сек
Дата кодирования : UTC 2017-12-08 06:03:09
Программа кодирования : mkvmerge v15.0.0 ('Duel with the Devil') 64-bit
Библиотека кодирования : libebml v1.3.5 + libmatroska v1.4.5
Видео
Идентификатор : 1
Формат : AVC
Формат/Информация : Advanced Video Codec
Профиль формата : High@L4.1
Параметр CABAC формата : Да
Параметр RefFrames формата : 10 кадров
Идентификатор кодека : V_MPEG4/ISO/AVC
Продолжительность : 1 ч. 51 м.
Битрейт : 860 Кбит/сек
Ширина : 768 пикселей
Высота : 320 пикселей
Соотношение сторон : 2,40:1
Режим частоты кадров : Постоянный
Частота кадров : 24,000 кадра/сек
Цветовое пространство : YUV
Субдискретизация насыщенности : 4:2:0
Битовая глубина : 8 бит
Тип развёртки : Прогрессивная
Бит/(Пиксели*Кадры) : 0.146
Размер потока : 683 Мбайт (92%)
Библиотека кодирования : x264 core 152 r2851kMod ba24899
Настройки программы : cabac=1 / ref=10 / deblock=1:-3:-3 / analyse=0x3:0x133 / me=umh / subme=11 / psy=1 / fade_compensate=0.00 / psy_rd=1.00:0.10 / mixed_ref=1 / me_range=32 / chroma_me=1 / trellis=2 / 8x8dct=1 / cqm=0 / deadzone=21,11 / fast_pskip=0 / chroma_qp_offset=-3 / threads=6 / lookahead_threads=1 / sliced_threads=0 / nr=0 / decimate=0 / interlaced=0 / bluray_compat=0 / constrained_intra=0 / bframes=10 / b_pyramid=2 / b_adapt=2 / b_bias=0 / direct=3 / weightb=1 / open_gop=0 / weightp=2 / keyint=240 / keyint_min=23 / scenecut=40 / intra_refresh=0 / rc_lookahead=40 / rc=2pass / mbtree=1 / bitrate=860 / ratetol=1.0 / qcomp=0.60 / qpmin=0 / qpmax=69 / qpstep=4 / cplxblur=20.0 / qblur=0.5 / vbv_maxrate=50000 / vbv_bufsize=62500 / nal_hrd=none / filler=0 / ip_ratio=1.40 / aq=3:1.00
Default : Да
Forced : Нет
Аудио
Идентификатор : 2
Формат : AAC
Формат/Информация : Advanced Audio Codec
Профиль формата : LC
Идентификатор кодека : A_AAC
Продолжительность : 1 ч. 51 м.
Битрейт : 76,0 Кбит/сек
Каналы : 2 канала
Расположение каналов : Front: L R
Частота : 48,0 КГц
Частота кадров : 46,875 кадров/сек (1024 SPF)
Метод сжатия : С потерями
Задержка видео : 9 мс.
Размер потока : 60,4 Мбайт (8%)
Default : Да
Forced : Нет
Меню
00:00:00.000 : en:Глава 1
00:09:18.208 : en:Глава 2
00:15:14.791 : en:Глава 3
00:22:54.166 : en:Глава 4
00:30:15.124 : en:Глава 5
00:38:43.832 : en:Глава 6
00:45:55.998 : en:Глава 7
00:53:27.498 : en:Глава 8
01:00:40.748 : en:Глава 9
01:07:41.498 : en:Глава 10
01:15:28.748 : en:Глава 11
01:22:42.789 : en:Глава 12
01:30:27.580 : en:Глава 13
01:37:57.746 : en:Глава 14
01:45:13.454 : en:Глава 15


Релиз от:



   Похожие торренты   Торрент   Размер 
В этой теме нет новых непрочитанных сообщений. Сторожевая застава / Сторожова застава (2017) WEB-DLRip-AVC от OlLanDGroup | iTunes

459 | 13

1.46 ГБ

В этой теме нет новых непрочитанных сообщений. Сторожевая застава / Сторожова застава (2017) WEB-DLRip от GeneralFilm | iTunes

112 | 4

745.92 МБ

В этой теме нет новых непрочитанных сообщений. Сторожевая застава / Сторожова застава (2017) WEB-DLRip от Scarabey | iTunes

121 | 2

1.45 ГБ

В этой теме нет новых непрочитанных сообщений. Сторожевая застава / Сторожова застава (2017) WEB-DLRip от Generalfilm | КПК | iTunes

29 | 1

422.08 МБ

В этой теме нет новых непрочитанных сообщений. Сторожевая застава / Сторожова застава (2017) WEB-DLRip от MegaPeer | iTunes

2151 | 67

1.46 ГБ

В этой теме нет новых непрочитанных сообщений. Сторожевая застава / Сторожова застава (2017) WEB-DL 1080p | iTunes

713 | 25

4.13 ГБ

В этой теме нет новых непрочитанных сообщений. Застава в горах (1953) SATRip-AVC от ExKinoRay

59 | 16

2.33 ГБ




Вы не можете начинать темы
Вы не можете отвечать на сообщения
Вы не можете редактировать свои сообщения
Вы не можете удалять свои сообщения
Вы не можете добавлять вложения

Перейти:  
 Вход
ppkBB3cker v.2 © 2008-2014 @ PPK
[ Time : 0.036s | 18 Queries | GZIP : Off ]

cron