img image001 image001 image001 image001 image001 image001 image001 image001 image001 image001 image001 image001 image001 image001 image001 image001

Planets Sun Sun Sun
Статистика раздачи
Автор: Nickolas3434 | Размер: 1.51 ГБ | Добавлен: 09 дек 2017
Раздают: 155    Качают: 11
Скачать торрент
Скачать торрент
Описание торрента

СообщениеДобавлено: 09 дек 2017 



Группа New-Team ВКонтакте
Подписывайтесь так же на мою группу ВКонтакте stalkerok | AVC рипы
Ссылка в группе New-Team
Присоединяйтесь!

Дюнкерк
Dunkirk
«Событие, которое изменило мир»


Страна: Великобритания, Нидерланды, Франция, США
Жанр: военный, драма, история
Год выпуска: 2017
Продолжительность: 01:46:38
Перевод: Профессиональный (полное дублирование) [Blu-ray EUR]
Субтитры: русские (форсированные, полные)
Оригинальная аудиодорожка: нет
Режиссер: Кристофер Нолан / Christopher Nolan
В ролях: Финн Уайтхед, Том Глинн-Карни, Джек Лауден, Гарри Стайлс, Анайрин Барнард, Джеймс Д’Арси, Барри Кеоган, Кеннет Брана, Киллиан Мёрфи, Марк Райлэнс, Том Харди, Дэмиен Боннар
Описание:
Фильм расскажет историю чудесного спасения более трехсот тысяч солдат в ходе Дюнкеркской операции, имевшей место в начале Второй мировой войны. События начинаются с окружения сотен тысяч британских и союзных войск силами противника. Пойманные в ловушку на пляже, и находясь спиной к морю, они сталкиваются лицом к лицу с неразрешимой ситуацией, тем временем как тиски противника сжимаются все сильнее и сильнее.

Релиз:
Автор рипа: stalkerok
Сэмпл
Качество видео: BDRip-AVC [Dunkirk (2017) Blu-ray Disc [EUR] [IMAX] -BLUEBIRD]
Формат видео: MKV
Видео кодек: AVC
Аудио кодек: AC3
Видео: 1579 Кбит/сек, 896x504 (16:9), 23,976 кадр/сек, AVC
Аудио: русский, 448 Кбит/сек, 48 КГц, 5.1, AC3
Навигация по главам: есть

---[Information] [08.12.2017 19:06:14] x264 [info]: frame I:1055 Avg QP:18.44 size: 33706
---[Information] [08.12.2017 19:06:14] x264 [info]: frame P:37263 Avg QP:20.96 size: 15568
---[Information] [08.12.2017 19:06:14] x264 [info]: frame B:115087 Avg QP:22.69 size: 5630
General
Unique ID : 181217247105727776945868877477311831359 (0x88552C197EE948B7B1E3CB0B28A65D3F)
Complete name : M:$newDunkirk (2017)Dunkirk.2017.BDRip-AVC.RUS.stalkerok.new-team.mkv
Format : Matroska
Format version : Version 4 / Version 2
File size : 1.51 GiB
Duration : 1 h 46 min
Overall bit rate : 2 030 kb/s
Movie name : Dunkirk (2017) (Rip by stalkerok)
Encoded date : UTC 2017-12-08 16:07:05
Writing application : mkvmerge v8.6.1 ('Flying') 64bit
Writing library : libebml v1.3.3 + libmatroska v1.4.4
Video
ID : 1
Format : AVC
Format/Info : Advanced Video Codec
Format profile : High@L4.1
Format settings, CABAC : Yes
Format settings, ReFrames : 14 frames
Codec ID : V_MPEG4/ISO/AVC
Duration : 1 h 46 min
Bit rate : 1 580 kb/s
Width : 896 pixels
Height : 504 pixels
Display aspect ratio : 16:9
Frame rate mode : Constant
Frame rate : 23.976 (24000/1001) FPS
Color space : YUV
Chroma subsampling : 4:2:0
Bit depth : 8 bits
Scan type : Progressive
Bits/(Pixel*Frame) : 0.146
Stream size : 1.18 GiB (78%)
Title : Dunkirk (2017) (Rip by stalkerok)
Writing library : x264 core 152 r2851kMod ba24899
Encoding settings : cabac=1 / ref=14 / deblock=1:-3:-2 / analyse=0x3:0x133 / me=umh / subme=11 / psy=1 / fade_compensate=0.00 / psy_rd=1.00:0.00 / mixed_ref=1 / me_range=32 / chroma_me=1 / trellis=2 / 8x8dct=1 / cqm=0 / deadzone=21,11 / fast_pskip=0 / chroma_qp_offset=-2 / threads=12 / lookahead_threads=3 / sliced_threads=0 / nr=0 / decimate=1 / interlaced=0 / bluray_compat=0 / constrained_intra=0 / bframes=14 / b_pyramid=2 / b_adapt=2 / b_bias=0 / direct=3 / weightb=1 / open_gop=0 / weightp=2 / keyint=240 / keyint_min=23 / scenecut=40 / intra_refresh=0 / rc_lookahead=60 / rc=crf / mbtree=0 / crf=20.3000 / qcomp=0.65 / qpmin=0 / qpmax=69 / qpstep=4 / vbv_maxrate=50000 / vbv_bufsize=62500 / crf_max=0.0 / nal_hrd=none / filler=0 / ip_ratio=1.30 / pb_ratio=1.25 / aq=3:0.85 / zones=142739,153405,q=34
Default : Yes
Forced : No
Audio
ID : 2
Format : AC-3
Format/Info : Audio Coding 3
Mode extension : CM (complete main)
Format settings, Endianness : Big
Codec ID : A_AC3
Duration : 1 h 46 min
Bit rate mode : Constant
Bit rate : 448 kb/s
Channel(s) : 6 channels
Channel positions : Front: L C R, Side: L R, LFE
Sampling rate : 48.0 kHz
Frame rate : 31.250 FPS (1536 spf)
Compression mode : Lossy
Stream size : 342 MiB (22%)
Language : Russian
Default : Yes
Forced : No
Text #1
ID : 3
Format : UTF-8
Codec ID : S_TEXT/UTF8
Codec ID/Info : UTF-8 Plain Text
Duration : 1 h 40 min
Bit rate : 2 b/s
Count of elements : 30
Stream size : 1.52 KiB (0%)
Title : forced
Language : Russian
Default : Yes
Forced : No
Text #2
ID : 4
Format : UTF-8
Codec ID : S_TEXT/UTF8
Codec ID/Info : UTF-8 Plain Text
Duration : 1 h 40 min
Bit rate : 42 b/s
Count of elements : 645
Stream size : 31.1 KiB (0%)
Language : Russian
Default : No
Forced : No
Menu
00:00:00.000 : en:Chapter 1
00:08:51.364 : en:Chapter 2
00:20:13.754 : en:Chapter 3
00:29:07.620 : en:Chapter 4
00:42:35.261 : en:Chapter 5
00:52:48.206 : en:Chapter 6
01:04:32.827 : en:Chapter 7
01:12:50.824 : en:Chapter 8
01:25:55.024 : en:Chapter 9
01:33:23.347 : en:Chapter 10
01:39:13.906 : en:Chapter 11





   Похожие торренты   Торрент   Размер 
В этой теме нет новых непрочитанных сообщений. Дюнкерк / Dunkirk (2017) BDRip-AVC от New-Team | IMAX | Лицензия

93 | 7

2.87 ГБ

В этой теме нет новых непрочитанных сообщений. Дюнкерк / Dunkirk (2017) BDRip-AVC от New-Team | IMAX | Лицензия

36 | 11

783.76 МБ

В этой теме нет новых непрочитанных сообщений. Дюнкерк / Dunkirk (2017) BDRip 1080p от New-Team | IMAX | Лицензия

219 | 12

9.69 ГБ

В этой теме нет новых непрочитанных сообщений. Дюнкерк / Dunkirk (2017) BDRip 720p от New-Team | IMAX | Лицензия

283 | 15

4.39 ГБ

В этой теме нет новых непрочитанных сообщений. Дюнкерк / Dunkirk (2017) BDRip | IMAX | Лицензия

504 | 17

2.18 ГБ

В этой теме нет новых непрочитанных сообщений. Дюнкерк / Dunkirk (2017) BDRip от ExKinoRay | IMAX | Лицензия

32 | 3

1.46 ГБ

В этой теме нет новых непрочитанных сообщений. Дюнкерк / Dunkirk (2017) BDRip 720p | IMAX | Лицензия

1055 | 198

5.56 ГБ




Вы не можете начинать темы
Вы не можете отвечать на сообщения
Вы не можете редактировать свои сообщения
Вы не можете удалять свои сообщения
Вы не можете добавлять вложения

Перейти:  
 Вход
ppkBB3cker v.2 © 2008-2014 @ PPK
[ Time : 0.053s | 19 Queries | GZIP : Off ]

cron