img image001 image001 image001 image001 image001 image001 image001 image001 image001 image001 image001 image001 image001 image001 image001

Planets Sun Sun Sun
Статистика раздачи
Автор: Nickolas3434 | Размер: 1.11 ГБ | Добавлен: 09 дек 2017
Раздают: 4    Качают: 1
Скачать торрент
Скачать торрент
Описание торрента

СообщениеДобавлено: 09 дек 2017 

Информация о фильме
Название: Она дьявол
Оригинальное название: Rak rao khayao kwan
Год выхода: 2014
Жанр: ужасы, драма
Режиссер: Pisut Praesangeam
В ролях: Fandee Chanyathanakorn, Zozeen Panyanut Jirarottanakasem, Harin Suthamjarus
О фильме:
Деревенский парень по имени Вэн влюбляется в красивую девушку из своей деревни по имени Плой. Вскоре они женятся и в ночь после свадьбы Плой превращается в совершенного другого, страшного человека. Вэн решает сделать всё возможное, чтобы вернуть настоящую Плой.

Страна: Таиланд
Продолжительность: 01:42:44
Перевод: Любительский, многоголосый, закадровый (фильм переведён и озвучен релиз-группой "XDUB DORAMA", закадровый текст читали: KAS, Loki Nintendo, Yamatori, Dorotti, тайминг: Mayami, работа со звуком: Izanami)
Файл
Кодек: V_MPEG4/ISO/AVC
Качество: DVDRip 480p
Видео: 1047x432, 25.000 FPS, 1203 kb/s
Звук: mp3, 48.0 kHz, 2ch, 320 kb/s
Субтитры: нет
General
Unique ID : 251471953048942885016020432286061814561 (0xBD2FBC885172CA839AC4FE439409E321)
Complete name : She.Devil.2014.L.480p.DVDRip.mkv
Format : Matroska
Format version : Version 2
File size : 1.11 GiB
Duration : 1 h 42 min
Overall bit rate : 1 553 kb/s
Encoded date : UTC 2017-12-04 20:29:56
Writing application : mkvmerge v4.2.0 ('No Talking') сборка от Jul 28 2010 18:38:23
Writing library : libebml v1.0.0 + libmatroska v1.0.0
Video
ID : 1
Format : AVC
Format/Info : Advanced Video Codec
Format profile : High@L3.1
Format settings, CABAC : Yes
Format settings, RefFrames : 9 frames
Muxing mode : Header stripping
Codec ID : V_MPEG4/ISO/AVC
Duration : 1 h 42 min
Bit rate : 1 203 kb/s
Width : 1047 pixels
Height : 432 pixels
Frame rate mode : Constant
Frame rate : 25.000 FPS
Color space : YUV
Chroma subsampling : 4:2:0
Bit depth : 8 bits
Scan type : Progressive
Bits/(Pixel*Frame) : 0.155
Stream size : 884 MiB (77%)
Writing library : x264 core 152 r2851 ba24899
Encoding settings : cabac=1 / ref=9 / deblock=1:0:0 / analyse=0x3:0x133 / me=umh / subme=11 / psy=1 / psy_rd=1.00:0.15 / mixed_ref=1 / me_range=32 / chroma_me=1 / trellis=2 / 8x8dct=1 / cqm=0 / deadzone=21,11 / fast_pskip=1 / chroma_qp_offset=-3 / threads=12 / lookahead_threads=2 / sliced_threads=0 / nr=0 / decimate=1 / interlaced=0 / bluray_compat=0 / constrained_intra=0 / bframes=8 / b_pyramid=2 / b_adapt=2 / b_bias=0 / direct=3 / weightb=1 / open_gop=0 / weightp=2 / keyint=240 / keyint_min=23 / scenecut=40 / intra_refresh=0 / rc_lookahead=60 / rc=crf / mbtree=1 / crf=17.0 / qcomp=0.60 / qpmin=0 / qpmax=69 / qpstep=4 / ip_ratio=1.40 / aq=1:1.00
Language : English
Default : Yes
Forced : No
Audio
ID : 2
Format : MPEG Audio
Format version : Version 1
Format profile : Layer 3
Mode : Joint stereo
Muxing mode : Header stripping
Codec ID : A_MPEG/L3
Codec ID/Hint : MP3
Duration : 1 h 42 min
Bit rate mode : Constant
Bit rate : 320 kb/s
Channel(s) : 2 channels
Sampling rate : 48.0 kHz
Compression mode : Lossy
Stream size : 235 MiB (21%)
Default : Yes
Forced : No

Релиз от:



   Похожие торренты   Торрент   Размер 
В этой теме нет новых непрочитанных сообщений. Просто герои / Yee daam kwan ying (1989) DVDRip | А

8 | 69

1.46 ГБ

В этой теме нет новых непрочитанных сообщений. Просто герои / Yee daam kwan ying (1989) DVDRip | А

0 | 0

744.88 МБ

В этой теме нет новых непрочитанных сообщений. 12 лет / 12-Sai [OVA] (2014) DVDRip 480p | AniFilm

87 | 3

118.33 МБ

В этой теме нет новых непрочитанных сообщений. 12 лет / 12-Sai [OVA] (2014) DVDRip 480p | AniFilm

4 | 0

268.68 МБ

В этой теме нет новых непрочитанных сообщений. Дорога Юности ОВА / Ao Haru Ride OVA [01 из 02] (2014) DVDRip 480p от AniFilm | L2

13 | 3

189.04 МБ

В этой теме нет новых непрочитанных сообщений. Маги: Приключения Синбада / Magi: Sinbad no Bouken [OVA] [01-03 из 04] (2014) DVDRip 480p | AniFilm

70 | 9

1.13 ГБ

В этой теме нет новых непрочитанных сообщений. Дьявол / Maou [S01] (2008) DVDRip | L1

25 | 14

7.96 ГБ




Вы не можете начинать темы
Вы не можете отвечать на сообщения
Вы не можете редактировать свои сообщения
Вы не можете удалять свои сообщения
Вы не можете добавлять вложения

Перейти:  
Для Мосгорсуда, Роскомнадзора и рекламодателей: mosgorsud-torrent[собачка]yandex.ru
 Вход
ppkBB3cker v.2 © 2008-2014 @ PPK
[ Time : 0.062s | 20 Queries | GZIP : Off ]

cron