img image001 image001 image001 image001 image001 image001 image001 image001 image001 image001 image001 image001 image001 image001 image001

Planets Sun Sun Sun
Статистика раздачи
Автор: Nickolas3434 | Размер: 8.28 ГБ | Добавлен: 09 дек 2017
Раздают: 3    Качают: 1
Скачать торрент
Скачать торрент
Описание торрента

СообщениеДобавлено: 09 дек 2017 

Название: В тупике
Оригинальное название: Gridlock'd
Год выхода: 1997
Страна: США
Студия: Def Pictures, Dragon Pictures, Interscope Communications
Продолжительность: 01:31:18
Жанр: драма, комедия, криминал, ...
Режиссер: Вонди Куртис-Холл
В ролях: Тупак Шакур, Тим Рот, Тэнди Ньютон, Чарльз Флайшер, Ховард Хессеман, Джеймс Пикенс мл., Джон Сейлз, Эрик Пэйн, Том Таулз, Том Райт, ...
Перевод:
- Профессиональный (многоголосый, закадровый) TV Россия
- Профессиональный (двуголосый, закадровый) R5
- Любительский (одноголосый, закадровый) D Cap Studio
- Субтитры
О фильме: Кошмар новогоднего утра. Подружка Стретча и Спуна загибается от передозировки. Парни мечтают завязать с наркотиками. Против них все: Правительство, наркобизнес, тупые и злобные бандиты, тяжелое детство, погода, телевидение….. С Новым годом, Америка!…

Кодек: x264
Качество: BDRip 1080p
Видео: 1920x1040, 10500 kbps, 23,976 fps
Аудио #1: AC-3, 2 ch, 224 kbps (Rus) - MVO Россия
Аудио #2: AC-3, 6 ch, 384 kbps (Rus) - DVO R5
Аудио #3: AC-3, 6 ch, 384 kbps (Rus) - VO D Cap Studio
Аудио #4: DTS, 6 ch, 1509 kbps (Eng)
Субтитры: русские, английские
Общее
Уникальный идентификатор : 183127737997010483232266822483909811829 (0x89C51E92ADA97E2AB98F9D0978081E75)
Полное имя : В тупике (Gridlock'd) 1997 BDRip 1080p.mkv
Формат : Matroska
Версия формата : Version 2
Размер файла : 8,28 Гбайт
Продолжительность : 1 ч. 31 м.
Общий поток : 13,0 Мбит/сек
Дата кодирования : UTC 2017-12-08 22:11:43
Программа кодирования : mkvmerge v4.0.0 ('The Stars were mine') сборка от Jun 6 2010 16:18:42
Библиотека кодирования : libebml v1.0.0 + libmatroska v1.0.0
Видео
Идентификатор : 1
Формат : AVC
Формат/Информация : Advanced Video Codec
Профиль формата : High@L4.1
Параметр CABAC формата : Да
Параметр ReFrames формата : 4 кадра
Идентификатор кодека : V_MPEG4/ISO/AVC
Продолжительность : 1 ч. 31 м.
Битрейт : 10,5 Мбит/сек
Ширина : 1920 пикселей
Высота : 1040 пикселей
Соотношение сторон : 1,85:1
Режим частоты кадров : Постоянный
Частота кадров : 23,976 (24000/1001) кадра/сек
Цветовое пространство : YUV
Субдискретизация насыщенности : 4:2:0
Битовая глубина : 8 бит
Тип развёртки : Прогрессивная
Бит/(Пиксели*Кадры) : 0.219
Размер потока : 6,52 Гбайт (79%)
Библиотека кодирования : x264 core 152 r2851 ba24899
Настройки программы : cabac=1 / ref=4 / deblock=1:-2:-2 / analyse=0x3:0x113 / me=umh / subme=8 / psy=1 / psy_rd=1.00:0.00 / mixed_ref=1 / me_range=16 / chroma_me=1 / trellis=2 / 8x8dct=1 / cqm=0 / deadzone=21,11 / fast_pskip=1 / chroma_qp_offset=-2 / threads=12 / lookahead_threads=2 / sliced_threads=0 / nr=0 / decimate=1 / interlaced=0 / bluray_compat=0 / constrained_intra=0 / bframes=3 / b_pyramid=2 / b_adapt=2 / b_bias=0 / direct=3 / weightb=1 / open_gop=0 / weightp=2 / keyint=240 / keyint_min=24 / scenecut=40 / intra_refresh=0 / rc_lookahead=50 / rc=2pass / mbtree=1 / bitrate=10486 / ratetol=1.0 / qcomp=0.60 / qpmin=0 / qpmax=69 / qpstep=4 / cplxblur=20.0 / qblur=0.5 / ip_ratio=1.40 / aq=1:1.00
Язык : English
Default : Нет
Forced : Нет
Аудио #1
Идентификатор : 2
Формат : AC-3
Формат/Информация : Audio Coding 3
Расширение режима : CM (complete main)
Параметр Endianness формата : Big
Идентификатор кодека : A_AC3
Продолжительность : 1 ч. 31 м.
Вид битрейта : Постоянный
Битрейт : 224 Кбит/сек
Каналы : 2 канала
Расположение каналов : Front: L R
Частота : 48,0 КГц
Частота кадров : 31,250 кадров/сек (1536 spf)
Метод сжатия : С потерями
Размер потока : 146 Мбайт (2%)
Заголовок : MVO Россия
Язык : Russian
Default : Нет
Forced : Нет
Аудио #2
Идентификатор : 3
Формат : AC-3
Формат/Информация : Audio Coding 3
Расширение режима : CM (complete main)
Параметр Endianness формата : Big
Идентификатор кодека : A_AC3
Продолжительность : 1 ч. 31 м.
Вид битрейта : Постоянный
Битрейт : 384 Кбит/сек
Каналы : 6 каналов
Расположение каналов : Front: L C R, Side: L R, LFE
Частота : 48,0 КГц
Частота кадров : 31,250 кадров/сек (1536 spf)
Метод сжатия : С потерями
Размер потока : 251 Мбайт (3%)
Заголовок : DVO R5
Язык : Russian
Default : Нет
Forced : Нет
Аудио #3
Идентификатор : 4
Формат : AC-3
Формат/Информация : Audio Coding 3
Расширение режима : CM (complete main)
Параметр Endianness формата : Big
Идентификатор кодека : A_AC3
Продолжительность : 1 ч. 31 м.
Вид битрейта : Постоянный
Битрейт : 384 Кбит/сек
Каналы : 6 каналов
Расположение каналов : Front: L C R, Side: L R, LFE
Частота : 48,0 КГц
Частота кадров : 31,250 кадров/сек (1536 spf)
Метод сжатия : С потерями
Размер потока : 251 Мбайт (3%)
Заголовок : VO D Cap Studio
Язык : Russian
Default : Нет
Forced : Нет
Аудио #4
Идентификатор : 5
Формат : DTS
Формат/Информация : Digital Theater Systems
Режим : 16
Параметр Endianness формата : Big
Идентификатор кодека : A_DTS
Продолжительность : 1 ч. 31 м.
Вид битрейта : Постоянный
Битрейт : 1509 Кбит/сек
Каналы : 6 каналов
Расположение каналов : Front: L C R, Side: L R, LFE
Частота : 48,0 КГц
Частота кадров : 93,750 кадра/сек (512 spf)
Битовая глубина : 24 бит
Метод сжатия : С потерями
Размер потока : 985 Мбайт (12%)
Язык : English
Default : Нет
Forced : Нет
Текст #1
Идентификатор : 6
Формат : UTF-8
Идентификатор кодека : S_TEXT/UTF8
Идентификатор кодека/Информация : UTF-8 Plain Text
Язык : Russian
Default : Нет
Forced : Нет
Текст #2
Идентификатор : 7
Формат : UTF-8
Идентификатор кодека : S_TEXT/UTF8
Идентификатор кодека/Информация : UTF-8 Plain Text
Язык : English
Default : Нет
Forced : Нет
Меню
00:00:00.000 : en:00:00:00.000
00:08:16.954 : en:00:08:16.954
00:17:09.236 : en:00:17:09.236
00:26:36.094 : en:00:26:36.094
00:35:58.990 : en:00:35:58.990
00:46:02.426 : en:00:46:02.426
00:55:58.563 : en:00:55:58.563
01:04:09.595 : en:01:04:09.595
01:17:10.459 : en:01:17:10.459
01:26:37.901 : en:01:26:37.901
01:31:19.223 : en:01:31:19.223





   Похожие торренты   Торрент   Размер 
В этой теме нет новых непрочитанных сообщений. В тупике / Gridlock'd (1997) BDRip 1080p | Full Screen | P, P2, L1

2 | 0

8.28 ГБ

В этой теме нет новых непрочитанных сообщений. В тупике / Gridlock'd (1997) HDTVRip 1080p | P, P2, L1

9 | 2

6.88 ГБ

В этой теме нет новых непрочитанных сообщений. В тупике / Gridlock'd (1997) DVDRip-AVC | P, P2, L1

221 | 7

2.96 ГБ

В этой теме нет новых непрочитанных сообщений. В тупике / Gridlock'd (1997) HDTVRip

12 | 2

1.54 ГБ

В этой теме нет новых непрочитанных сообщений. В тупике / Gridlock'd (1997) HDTVRip

18 | 5

1.45 ГБ

В этой теме нет новых непрочитанных сообщений. В тупике / Gridlock'd (1997) HDTVRip-AVC

12 | 2

1.93 ГБ

В этой теме нет новых непрочитанных сообщений. В тупике / Road Ends (1997) DVDRip от NovaLan

44 | 33

1.47 ГБ




Вы не можете начинать темы
Вы не можете отвечать на сообщения
Вы не можете редактировать свои сообщения
Вы не можете удалять свои сообщения
Вы не можете добавлять вложения

Перейти:  
 Вход
ppkBB3cker v.2 © 2008-2014 @ PPK
[ Time : 0.063s | 17 Queries | GZIP : Off ]

cron