img image001 image001 image001 image001 image001 image001 image001 image001 image001 image001 image001 image001 image001 image001 image001

Planets Sun Sun Sun
Статистика раздачи
Автор: Снежана | Размер: 1.19 ГБ | Добавлен: 22 июл 2013
Раздают: 6    Качают: 3
Скачать торрент
Скачать торрент
Описание торрента

СообщениеДобавлено: 22 июл 2013 

#77

Название: Самая красивая загадка
Оригинальное название: Nejkrásnější hádanka
Жанр: Детский, семейный, сказка
Год выпуска: 2008
Режиссёр: Зденек Трошка
В ролях: Ян Долански, Вероника Кубаржова, Ладислав Потмешил, Татьяна Медвецка, Мирослав Таборски, Павел Кикинчук, Мирослав Грабе, Пржемысл Кубиста, Татьяна Крховова, Иржи Крейчи, Мартин Лукач, Радек Сухи, Иржи Лэйн, Олдрич Криз, Карел Либел, Вероника Кохоутова, Ладислав Бенес, Индржих Новачек, Ян Кузелька, Михал Кучера, Жан Новак, Джозеф Свобода, Мирослав Стробл, Вацлав Веселы

Описание:
Матей - весёлый, остроумный и добрый сердцем юноша работает на ферме. Магдалена – дочь хозяина фермы и Матей любят друг друга. Но отец Магдалены хочет, чтобы она вышла замуж за богатого сына судьи. Фермер выгоняет Матея вон. И Матей отправляется в королевский замок, желая заработать немного денег своим умом и тем самым добиться расположения отца Магдалены. Так начинаются приключения Матея



Выпущено: Чехия / Barrandov Studios
Продолжительность: 1:34:23
Перевод: Любительский многоголосый + дублированный (начальные титры и песни)
Cубтитры: нет

Качество видео: HDTVRip
Формат видео: AVI
Видео: XviD, 720x384 (1,85:1), 1597 Кбит/с, 25 Кадр/с
Аудио: Dolby AC3, 192 Кбит/с, 2 канала (Стерео)



Релиз от Феникс-клуб
Любительская многоголосая озвучка, сделанная примерно тем же составом, что и Соломенная шляпка (1971).
Титры в начале фильма самодельные, с сохранением логотипов спонсоров и исходного порядка появления информации. Титры в конце фильма оставлены без изменения. Две песни в фильме переведены на русский язык и спеты по-русски. Третья песня заменена на всем известную детскую песенку. Песня в конечных титрах оставлена на родном языке. Озвучка по своей сути - любительский дубляж, родные голоса героев вы почти не услышите, при этом все остальные звуки присутствуют.
Общее
Полное имя : Samaja.krasivaja.zagadka.2008.XviD.HDTVRip.Fenix.avi
Формат : AVI
Формат/Информация : Audio Video Interleave
Размер файла : 1,19 Гбайт
Продолжительность : 1 ч. 34 м.
Общий поток : 1799 Кбит/сек
Программа кодирования : VirtualDubMod 1.5.10.2 (build 2540/release)
Библиотека кодирования : VirtualDub build 32842/release

Видео
Идентификатор : 0
Формат : MPEG-4 Visual
Профиль формата : Simple@L3
Параметр BVOP формата : 4
Параметр QPel формата : Нет
Параметр GMC формата : Без точки перехода
Параметр матрицы формата : Default (MPEG)
Идентификатор кодека : XVID
Идентификатор кодека/Подсказка : XviD
Продолжительность : 1 ч. 34 м.
Битрейт : 1597 Кбит/сек
Ширина : 720 пикселей
Высота : 384 пикселя
Соотношение сторон : 1,85:1
Частота кадров : 25,000 кадров/сек
Цветовое пространство : YUV
Субдискретизация насыщенности : 4:2:0
Битовая глубина : 8 бит
Тип развёртки : Прогрессивная
Метод сжатия : С потерями
Бит/(Пиксели*Кадры) : 0.231
Размер потока : 1,05 Гбайт (89%)
Библиотека кодирования : XviD 1.0.2 (UTC 2004-08-29)

Аудио
Идентификатор : 1
Формат : AC-3
Формат/Информация : Audio Coding 3
Расширение режима : CM (complete main)
Параметр Endianness формата : Big
Идентификатор кодека : 2000
Продолжительность : 1 ч. 34 м.
Вид битрейта : Постоянный
Битрейт : 192 Кбит/сек
Каналы : 2 канала
Расположение каналов : Front: L R
Частота : 48,0 КГц
Битовая глубина : 16 бит
Метод сжатия : С потерями
Размер потока : 130 Мбайт (11%)
Выравнивание : Разделение по промежуткам
Продолжительность промежутка : 40 мс. (1,00 видеокадр)
Время предзагрузки промежутка : 500 мс.



   Похожие торренты   Торрент   Размер 
В этой теме нет новых непрочитанных сообщений. Самая красивая загадка / Nejkrásnější hádanka (2008) HDTVRip от Kaztorrents | L

29 | 1

748.19 МБ

В этой теме нет новых непрочитанных сообщений. Самая красивая загадка / Nejkrásnější hádanka (2008) HDTVRip 720p от ivandubskoj

192 | 17

2.5 ГБ

В этой теме нет новых непрочитанных сообщений. Самая красивая 2 (2008) SATRip

24 | 9

1.44 ГБ

В этой теме нет новых непрочитанных сообщений. Самая красивая 1-2 [01-08 из 08] (2005-2008) DVDRip - LOOK

72 | 28

3.99 ГБ

В этой теме нет новых непрочитанных сообщений. Самая красивая женщина в мире / Красивая, но опасная / La donna più bella del mondo (Lina Cavalieri) / Beautiful But Dangerous (1955) DVDRip | P2

177 | 63

1.46 ГБ

В этой теме нет новых непрочитанных сообщений. Конный Клуб. Загадка сиреневой бабочки / Horse Gang 3 (2008) PC

64 | 8

914.97 МБ

В этой теме нет новых непрочитанных сообщений. Самая красивая (2005) DVDRip

41 | 6

1.95 ГБ




Вы не можете начинать темы
Вы не можете отвечать на сообщения
Вы не можете редактировать свои сообщения
Вы не можете удалять свои сообщения
Вы не можете добавлять вложения

Перейти:  
Для Мосгорсуда, Роскомнадзора и рекламодателей: mosgorsud-torrent[собачка]yandex.ru
 Вход
ppkBB3cker v.2 © 2008-2014 @ PPK
[ Time : 0.254s | 18 Queries | GZIP : Off ]

cron