img image001 image001 image001 image001 image001 image001 image001 image001 image001 image001 image001 image001 image001 image001 image001

Planets Sun Sun Sun
Статистика раздачи
Автор: Nickolas3434 | Размер: 3.16 ГБ | Добавлен: 12 дек 2017
Раздают: 23    Качают: 3
Скачать торрент
Скачать торрент
Описание торрента

СообщениеДобавлено: 12 дек 2017 

Информация о фильме
Наименование: Марджори Прайм
Оригинальное наименование: Marjorie Prime
Произведено: США
Категория: фантастика, драма, комедия, детектив
Режиссер постановщик: Майкл Алмерейда
В главных ролях: Джон Хэмм, Джина Дэвис, Тим Роббинс, Лоис Смит, Стефани Андухар, Ханна Гросс, Лесли Лайлс, Уильям Уолтерс, Адзуми Тсутсуи,
О фильме: Главной героиней фильма является немолодая и страдающая артритом бывшая скрипачка Марджори, у который начинаются провалы в памяти. Не желая смириться с потерей мужа, Марджори обзаводится голограммой, досконально похожей на более молодую версию своего супруга, и пытается жить счастливо в обществе ненастоящего мужа и настоящей дочери и зятя.

Файл
Качество: BDRip 720p
Видео данные: MKV, 1280x720 (16:9), 23.976 fps, 4000 Кбит/с
Аудио данные: AC3, 2 ch, 640 Кбит/с
Перевод: Любительский многоголосый (GreenРай Studio)
Продолжительность: 01:39:52
Над релизом работали:
Состав дикторов: Илья Кочетков и Анастасия Гайдаржи, Анна Кириленко
Руководитель проекта и координатор: Евгений Овчаренко
Организатор и координатор: Никита Марков
Пиар менеджер студии: Игорь Обухов
Техническая поддержка: Александр Методий
General
Unique ID : 234514264413041553747874299242177136601 (0xB06DCDEE9802695D82EADDC5B6C887D9)
Complete name : D:ПраймMarjorie.Prime.2017.P.BDRip.720p.mkv
Format : Matroska
Format version : Version 4 / Version 2
File size : 3.16 GiB
Duration : 1 h 39 min
Overall bit rate mode : Constant
Overall bit rate : 4 538 kb/s
Encoded date : UTC 2017-12-08 08:27:25
Writing application : mkvmerge v8.3.0 ('Over the Horizon') 64bit
Writing library : libebml v1.3.1 + libmatroska v1.4.2
Video
ID : 1
Format : AVC
Format/Info : Advanced Video Codec
Format profile : Main@L3.2
Format settings, CABAC : Yes
Format settings, ReFrames : 3 frames
Codec ID : V_MPEG4/ISO/AVC
Duration : 1 h 39 min
Bit rate mode : Constant
Bit rate : 4 000 kb/s
Width : 1 280 pixels
Height : 720 pixels
Display aspect ratio : 16:9
Frame rate mode : Constant
Frame rate : 23.976 (23976/1000) FPS
Standard : NTSC
Color space : YUV
Chroma subsampling : 4:2:0
Bit depth : 8 bits
Scan type : Progressive
Bits/(Pixel*Frame) : 0.181
Stream size : 2.72 GiB (86%)
Language : English
Default : Yes
Forced : No
Color range : Limited
Audio
ID : 2
Format : AC-3
Format/Info : Audio Coding 3
Mode extension : CM (complete main)
Format settings, Endianness : Big
Codec ID : A_AC3
Duration : 1 h 39 min
Bit rate mode : Constant
Bit rate : 640 kb/s
Channel(s) : 2 channels
Channel positions : Front: L R
Sampling rate : 48.0 kHz
Frame rate : 31.250 FPS (1536 spf)
Compression mode : Lossy
Stream size : 457 MiB (14%)
Default : Yes
Forced : No

ВНИМАНИЕ! Присутствует реклама!


Релиз от:



   Похожие торренты   Торрент   Размер 
В этой теме нет новых непрочитанных сообщений. Марджори Прайм / Marjorie Prime (2017) HDRip | L

36 | 3

1.37 ГБ

В этой теме нет новых непрочитанных сообщений. Трансформеры: Прайм / Transformers Prime [S02] (2012) BDRip 720p

19 | 9

23.72 ГБ

В этой теме нет новых непрочитанных сообщений. Трансформеры: Прайм / Transformers Prime [S01-S03] + Трансформеры: Прайм – Звериные Охотники: Восстание Предаконов (2010 - 2013) WEB-DLRip, HDRip от R.G.RealMT | КПК | L, D

226 | 26

5.51 ГБ

В этой теме нет новых непрочитанных сообщений. Трансформеры: Прайм / Transformers Prime [S01-S03] + Трансформеры: Прайм – Звериные Охотники: Восстание Предаконов (2010 - 2013) WEB-DLRip, HDRip от R.G.RealMT | L, D

230 | 83

27.96 ГБ

В этой теме нет новых непрочитанных сообщений. Трансформеры: Прайм / Transformers Prime [S01] (2010) WEB-DL 720p

15 | 9

18.67 ГБ

В этой теме нет новых непрочитанных сообщений. Трансформеры Прайм: Охотники на чудовищ. Восстание предаконов / Transformers Prime Beast Hunt (2013) BDRip 720p от Leonardo and Scarabey | D

137 | 23

1.95 ГБ

В этой теме нет новых непрочитанных сообщений. Трансформеры: Прайм / Transformers Prime [03х01-11 из 16] (2012) WEB-DL 720p | L

1 | 7

8.79 ГБ




Вы не можете начинать темы
Вы не можете отвечать на сообщения
Вы не можете редактировать свои сообщения
Вы не можете удалять свои сообщения
Вы не можете добавлять вложения

Перейти:  
Для Мосгорсуда, Роскомнадзора и рекламодателей: mosgorsud-torrent[собачка]yandex.ru
 Вход
ppkBB3cker v.2 © 2008-2014 @ PPK
[ Time : 0.047s | 18 Queries | GZIP : Off ]

cron