img image001 image001 image001 image001 image001 image001 image001 image001 image001 image001 image001 image001 image001 image001 image001 image001
Planets Sun Sun Sun
Статистика раздачи
Автор: Nickolas3434 | Размер: 7.96 ГБ | Добавлен: 12 дек 2017
Раздают: 4    Качают: 3
Скачать торрент
Скачать торрент
Описание торрента

СообщениеДобавлено: 12 дек 2017 

Следопыт

Pathfinder

«Two Worlds, One War. The Ultimate Battle Begins»



Страна: США
Жанр: боевик, триллер, драма, приключения
Год выпуска: 2006
Продолжительность: 01:47:11
Перевод: Профессиональный (полное дублирование), Профессиональный (многоголосый, закадровый), Профессиональный (двухголосый, закадровый), Авторский
Субтитры: русские, английские.


Режиссер: Маркус Ниспел / Marcus Nispel


В ролях: Карл Урбан (Ghost), Мун Бладгуд (Starfire), Рассел Минс (Pathfinder), Клэнси Браун (Gunnar), Джей Таваре (Blackwing), Натаниель Арканд (Wind In Tree), Ральф Мёллер (Ulfar), Кевин Лоринг (Jester), Уэйн Чарльз Бэйкер (Indian Father), Мишель Траш (Indian Mother), Николь Муньос (Little Sister), Баркели Даффилд (Ghost - 12 Years Old)


Описание: Северная Америка. 600 лет до прибытия Колумба. Викинги вторгаются на земли коренных жителей этих мест - индейцев. После столкновения двух племен, мальчик викингов остается один и попадает в лагерь врага.



MPAA: R - Лицам до 17 лет обязательно присутствие взрослого


Семпл





Качество: BDRip 720p
Контейнер: MKV
Видео: AVC, 1280x534 (2.40:1), 6324 kbps, 23,976 fps, 0,386 bpp
Аудио №1: русский / AC3 / 5.1 / 48 kHz / 640 kbps / Дубляж ( вставки двухголоски )
Аудио №2: русский / AC3 / 5.1 / 48 kHz / 640 kbps / MVO ( BD CEE )
Аудио №3: русский / AC3 / 5.1 / 48 kHz / 448 kbps / MVO ( Киномания )
Аудио №4: русский / AC3 / 5.1 / 48 kHz / 640 kbps / DVO ( Гланц и Королева )
Аудио №5: русский / AC3 / 5.1 / 48 kHz / 448 kbps / AVO ( Живов )
Аудио №6: русский / AC3 / 5.1 / 48 kHz / 640 kbps / AVO ( Немахов )
Аудио №7: английский / AC3 / 5.1 / 48 kHz / 640 kbps
Навигация по главам: есть


Формат : Matroska
Версия формата : Version 2
Размер файла : 7,96 Гбайт
Продолжительность : 1 ч. 47 м.
Общий поток : 10,6 Мбит/сек
Название фильма : = Следопыт / Pathfinder (2007) BDRip 720p - KORSAR =
Дата кодирования : UTC 2017-12-05 17:16:46
Программа кодирования : mkvmerge v5.8.0 ('No Sleep / Pillow') built on Sep 2 2012 15:37:04
Библиотека кодирования : libebml v1.2.3 + libmatroska v1.3.0
Attachment : Yes
Видео
Идентификатор : 1
Формат : AVC
Формат/Информация : Advanced Video Codec
Профиль формата : High@L4.1
Параметр CABAC формата : Да
Параметр ReFrames формата : 12 кадров
Идентификатор кодека : V_MPEG4/ISO/AVC
Продолжительность : 1 ч. 47 м.
Битрейт : 6324 Кбит/сек
Ширина : 1280 пикселей
Высота : 534 пикселя
Соотношение сторон : 2,40:1
Режим частоты кадров : Постоянный
Частота кадров : 23,976 кадра/сек
Цветовое пространство : YUV
Субдискретизация насыщенности : 4:2:0
Битовая глубина : 8 бит
Тип развёртки : Прогрессивная
Бит/(Пиксели*Кадры) : 0.386
Размер потока : 4,74 Гбайт (59%)
Заголовок : Следопыт / Pathfinder (2007) BDRip 720p - KORSAR
Библиотека кодирования : x264 core 148 r2744kMod b97ae06
Настройки программы : cabac=1 / ref=12 / deblock=1:-3:-3 / analyse=0x3:0x113 / me=umh / subme=11 / psy=1 / fade_compensate=0.00 / psy_rd=1.00:0.05 / mixed_ref=1 / me_range=32 / chroma_me=1 / trellis=2 / 8x8dct=1 / cqm=0 / deadzone=21,11 / fast_pskip=0 / chroma_qp_offset=-3 / threads=12 / lookahead_threads=3 / sliced_threads=0 / nr=0 / decimate=1 / interlaced=0 / bluray_compat=0 / constrained_intra=0 / bframes=12 / b_pyramid=2 / b_adapt=2 / b_bias=0 / direct=3 / weightb=1 / open_gop=0 / weightp=2 / keyint=240 / keyint_min=23 / scenecut=40 / intra_refresh=0 / rc_lookahead=60 / rc=crf / mbtree=0 / crf=18.0000 / qcomp=0.60 / qpmin=0 / qpmax=69 / qpstep=4 / vbv_maxrate=50000 / vbv_bufsize=62500 / crf_max=0.0 / nal_hrd=none / filler=0 / ip_ratio=1.40 / pb_ratio=1.30 / aq=3:0.90
Язык : English
Default : Да
Forced : Нет
Основные цвета : BT.709
Характеристики трансфера : BT.709
Коэффициенты матрицы : BT.709
Аудио #1
Идентификатор : 2
Формат : AC-3
Формат/Информация : Audio Coding 3
Расширение режима : CM (complete main)
Параметр Endianness формата : Big
Идентификатор кодека : A_AC3
Продолжительность : 1 ч. 47 м.
Вид битрейта : Постоянный
Битрейт : 640 Кбит/сек
Каналы : 6 каналов
Расположение каналов : Front: L C R, Side: L R, LFE
Частота : 48,0 КГц
Битовая глубина : 16 бит
Метод сжатия : С потерями
Размер потока : 491 Мбайт (6%)
Заголовок : Дубляж ( вставки двухголоски )
Язык : Russian
Default : Да
Forced : Нет
Аудио #2
Идентификатор : 3
Формат : AC-3
Формат/Информация : Audio Coding 3
Расширение режима : CM (complete main)
Параметр Endianness формата : Big
Идентификатор кодека : A_AC3
Продолжительность : 1 ч. 47 м.
Вид битрейта : Постоянный
Битрейт : 640 Кбит/сек
Каналы : 6 каналов
Расположение каналов : Front: L C R, Side: L R, LFE
Частота : 48,0 КГц
Битовая глубина : 16 бит
Метод сжатия : С потерями
Размер потока : 491 Мбайт (6%)
Заголовок : MVO ( BD CEE )
Язык : Russian
Default : Нет
Forced : Нет
Аудио #3
Идентификатор : 4
Формат : AC-3
Формат/Информация : Audio Coding 3
Расширение режима : CM (complete main)
Параметр Endianness формата : Big
Идентификатор кодека : A_AC3
Продолжительность : 1 ч. 47 м.
Вид битрейта : Постоянный
Битрейт : 448 Кбит/сек
Каналы : 6 каналов
Расположение каналов : Front: L C R, Side: L R, LFE
Частота : 48,0 КГц
Битовая глубина : 16 бит
Метод сжатия : С потерями
Размер потока : 344 Мбайт (4%)
Заголовок : MVO ( Киномания )
Язык : Russian
Default : Нет
Forced : Нет
Аудио #4
Идентификатор : 5
Формат : AC-3
Формат/Информация : Audio Coding 3
Расширение режима : CM (complete main)
Параметр Endianness формата : Big
Идентификатор кодека : A_AC3
Продолжительность : 1 ч. 47 м.
Вид битрейта : Постоянный
Битрейт : 640 Кбит/сек
Каналы : 6 каналов
Расположение каналов : Front: L C R, Side: L R, LFE
Частота : 48,0 КГц
Битовая глубина : 16 бит
Метод сжатия : С потерями
Размер потока : 491 Мбайт (6%)
Заголовок : DVO ( Гланц и Королева )
Язык : Russian
Default : Нет
Forced : Нет
Аудио #5
Идентификатор : 6
Формат : AC-3
Формат/Информация : Audio Coding 3
Расширение режима : CM (complete main)
Параметр Endianness формата : Big
Идентификатор кодека : A_AC3
Продолжительность : 1 ч. 47 м.
Вид битрейта : Постоянный
Битрейт : 448 Кбит/сек
Каналы : 6 каналов
Расположение каналов : Front: L C R, Side: L R, LFE
Частота : 48,0 КГц
Битовая глубина : 16 бит
Метод сжатия : С потерями
Размер потока : 344 Мбайт (4%)
Заголовок : AVO ( Живов )
Язык : Russian
Default : Нет
Forced : Нет
Аудио #6
Идентификатор : 7
Формат : AC-3
Формат/Информация : Audio Coding 3
Расширение режима : CM (complete main)
Параметр Endianness формата : Big
Идентификатор кодека : A_AC3
Продолжительность : 1 ч. 47 м.
Вид битрейта : Постоянный
Битрейт : 640 Кбит/сек
Каналы : 6 каналов
Расположение каналов : Front: L C R, Side: L R, LFE
Частота : 48,0 КГц
Битовая глубина : 16 бит
Метод сжатия : С потерями
Размер потока : 491 Мбайт (6%)
Заголовок : AVO ( Немахов )
Язык : Russian
Default : Нет
Forced : Нет
Аудио #7
Идентификатор : 8
Формат : AC-3
Формат/Информация : Audio Coding 3
Расширение режима : CM (complete main)
Параметр Endianness формата : Big
Идентификатор кодека : A_AC3
Продолжительность : 1 ч. 47 м.
Вид битрейта : Постоянный
Битрейт : 640 Кбит/сек
Каналы : 6 каналов
Расположение каналов : Front: L C R, Side: L R, LFE
Частота : 48,0 КГц
Битовая глубина : 16 бит
Метод сжатия : С потерями
Размер потока : 491 Мбайт (6%)
Язык : English
Default : Нет
Forced : Нет
Текст #1
Идентификатор : 9
Формат : UTF-8
Идентификатор кодека : S_TEXT/UTF8
Идентификатор кодека/Информация : UTF-8 Plain Text
Заголовок : R5
Язык : Russian
Default : Нет
Forced : Нет
Текст #2
Идентификатор : 10
Формат : UTF-8
Идентификатор кодека : S_TEXT/UTF8
Идентификатор кодека/Информация : UTF-8 Plain Text
Заголовок : Киномания
Язык : Russian
Default : Нет
Forced : Нет
Текст #3
Идентификатор : 11
Формат : UTF-8
Идентификатор кодека : S_TEXT/UTF8
Идентификатор кодека/Информация : UTF-8 Plain Text
Язык : English
Default : Нет
Forced : Нет
Меню
00:00:00.000 : en:Main Titles/Marauders
00:02:06.335 : en:The Viking Ship
00:06:09.703 : en:Mystery Child
00:10:27.460 : en:Tribal Gathering
00:18:16.721 : en:Fear in the Forest
00:21:05.473 : en:Rampage
00:25:11.844 : en:Death by the Sword
00:27:46.456 : en:Bring Me His Head!
00:34:34.406 : en:Rescued
00:43:24.268 : en:Run and You May Live
00:47:37.730 : en:Two Wolves
00:55:36.959 : en:Sneak Attack
01:00:09.773 : en:Massacre
01:02:35.752 : en:In the Caves
01:10:17.797 : en:Torture
01:14:34.428 : en:Secret Plan
01:19:16.210 : en:Across the Lake
01:22:06.296 : en:Under the Ice
01:24:02.537 : en:Mountain Ledge
01:33:31.397 : en:I Know Who I Am
01:35:06.492 : en:Not One of Yours
01:37:40.229 : en:Spirit Prophecy
01:41:31.460 : en:Pathfinder
01:42:37.276 : en:End Titles








   Похожие торренты   Торрент   Размер 
В этой теме нет новых непрочитанных сообщений. Следопыт / Pathfinder [UNRATED] (2007) BDRip [720p] от DHT-Movies

23 | 8

3 ГБ

В этой теме нет новых непрочитанных сообщений. Следопыт / Pathfinder (2007) BDRip 720p | Unrated от NOLIMITS-TEAM

183 | 7

2.27 ГБ

В этой теме нет новых непрочитанных сообщений. Следопыт / Pathfinder [UNRATED] (2007) BDRip

2 | 2

3.13 ГБ

В этой теме нет новых непрочитанных сообщений. Следопыт / Pathfinder [UNRATED] (2007) BDRip от HQCLUB

109 | 6

2.18 ГБ

В этой теме нет новых непрочитанных сообщений. Следопыт / Pathfinder (2007) BDRip 1080p | Unrated | 60 fps | D, P, P2, A

40 | 11

12.48 ГБ

В этой теме нет новых непрочитанных сообщений. Следопыт / Pathfinder (2007) BDRip 1080p от Youtracker | UNRATED, US Transfer

14 | 5

11.91 ГБ

В этой теме нет новых непрочитанных сообщений. Следопыт / Pathfinder (2007) BDRip 720p от Leonardo and Scarabey

467 | 135

4.39 ГБ




Вы не можете начинать темы
Вы не можете отвечать на сообщения
Вы не можете редактировать свои сообщения
Вы не можете удалять свои сообщения
Вы не можете добавлять вложения

Перейти:  
 Вход
ppkBB3cker v.2 © 2008-2014 @ PPK
[ Time : 0.049s | 18 Queries | GZIP : Off ]

cron