img image001 image001 image001 image001 image001 image001 image001 image001 image001 image001 image001 image001 image001 image001 image001 image001

Planets Sun Sun Sun
Статистика раздачи
Автор: Nickolas3434 | Размер: 61.77 ГБ | Добавлен: 15 дек 2017
Раздают: 13    Качают: 6
Скачать торрент
Скачать торрент
Описание торрента

СообщениеДобавлено: 15 дек 2017 

Информация о фильме
Название: Обливион
Оригинальное название: Oblivion
Год выхода: 2013
Жанр: Фантастика, боевик, триллер, приключения, антиутопия, постапокалипсис
Режиссер: Джозеф Косински
В ролях: Том Круз, Ольга Куриленко, Морган Фримен, Андреа Райзборо, Николай Костер-Валдау, Мелисса Лео, Зои Белл, Эбигейл Лоу, Изабель Лоу, Дэвид Мэдисон
О фильме:
Можно ли скучать по месту, в котором никогда не был, мечтать о девушке, которую никогда не видел? Добро пожаловать в будущее! Мы больше не можем называть Землю своим домом. Мы выиграли войну, но не смогли сохранить планету…

Страна: США,
Студия: Chernin Entertainment, Ironhead Studios, Radical Pictures, Radical Studios, Truenorth Productions, Universal Pictures
Продолжительность: 02:04:36
Перевод(ы):
#01: Дублированный | Лицензия
#02: Авторский | Сербин
#03: Авторский | Володарский
Файл
Качество: BDRemux 2160p
Видео: MPEG-H HEVC HDR Video, 3840x2160, 55.0 Mbit/s, 23.976 fps
Звук:
Аудио #01: 48 kHz, DTS, 5.1, 768 Kbps | Дублированный | RUS |
Аудио #02: 48 kHz, DTS-HD MA, 7.1, 5056 Kbps | Авторский | RUS |
Аудио #03: 48 kHz, DTS-HD MA, 7.1, 5056 Kbps | Авторский | RUS |
Аудио #04: 48 kHz, DTS-HD MA, 7.1, 5033 Kbps | Оригинал | ENG |
Субтитры: Русские (forced, full), английские

General
Unique ID : 233875827032723747544049391388314472790 (0xAFF2D889F52260DBBD41168E7FD29156)
Complete name : G:VideoSSDOblivion.2013.BDREMUX.2160p.4K.UltraHD.HEVC.HDR.ExKinoRay.mkv
Format : Matroska
Format version : Version 4 / Version 2
File size : 61.8 GiB
Duration : 2 h 4 min
Overall bit rate : 70.9 Mb/s
Movie name : Oblivion 2017 from ExKinoRay
Encoded date : UTC 2017-12-12 18:49:33
Writing application : mkvmerge v18.0.0 ('Apricity') 64-bit
Writing library : libebml v1.3.5 + libmatroska v1.4.8
Video
ID : 1
Format : HEVC
Format/Info : High Efficiency Video Coding
Format profile : Main 10@L5.1@High
Codec ID : V_MPEGH/ISO/HEVC
Duration : 2 h 4 min
Bit rate : 55.0 Mb/s
Width : 3 840 pixels
Height : 2 160 pixels
Display aspect ratio : 16:9
Frame rate mode : Constant
Frame rate : 23.976 (24000/1001) FPS
Color space : YUV
Chroma subsampling : 4:2:0 (Type 2)
Bit depth : 10 bits
Bits/(Pixel*Frame) : 0.277
Stream size : 47.9 GiB (78%)
Writing library : ATEME Titan KFE 3.7.3 (4.7.3.1003)
Language : English
Default : Yes
Forced : No
Color range : Limited
Color primaries : BT.2020
Transfer characteristics : PQ
Matrix coefficients : BT.2020 non-constant
Mastering display color pri : R: x=0.680000 y=0.320000, G: x=0.265000 y=0.690000, B: x=0.150000 y=0.060000, White point: x=0.312700 y=0.329000
Mastering display luminance : min: 0.0050 cd/m2, max: 1000.0000 cd/m2
Maximum Content Light Level : 1000 cd/m2
Maximum Frame-Average Light : 400 cd/m2
Audio #1
ID : 2
Format : DTS
Format/Info : Digital Theater Systems
Mode : 16
Format settings, Endianness : Big
Codec ID : A_DTS
Duration : 2 h 4 min
Bit rate mode : Constant
Bit rate : 768 kb/s
Channel(s) : 6 channels
Channel positions : Front: L C R, Side: L R, LFE
Sampling rate : 48.0 kHz
Frame rate : 93.750 FPS (512 SPF)
Bit depth : 24 bits
Compression mode : Lossy
Stream size : 685 MiB (1%)
Title : Dub [License]
Language : Russian
Default : Yes
Forced : No
Audio #2
ID : 3
Format : DTS
Format/Info : Digital Theater Systems
Format profile : MA / Core
Mode : 16
Format settings, Endianness : Big
Codec ID : A_DTS
Duration : 2 h 4 min
Bit rate mode : Variable / Constant
Bit rate : 5 056 kb/s / 1 509 kb/s
Channel(s) : 8 channels / 6 channels
Channel positions : Front: L C R, Side: L R, Back: L R, LFE / Front: L C R, Side: L R, LFE
Sampling rate : 48.0 kHz
Frame rate : 93.750 FPS (512 SPF)
Bit depth : 24 bits
Compression mode : Lossless / Lossy
Stream size : 4.40 GiB (7%)
Title : AVO [Serbin]
Language : Russian
Default : No
Forced : No
Audio #3
ID : 4
Format : DTS
Format/Info : Digital Theater Systems
Format profile : MA / Core
Mode : 16
Format settings, Endianness : Big
Codec ID : A_DTS
Duration : 2 h 4 min
Bit rate mode : Variable / Constant
Bit rate : 5 056 kb/s / 1 509 kb/s
Channel(s) : 8 channels / 6 channels
Channel positions : Front: L C R, Side: L R, Back: L R, LFE / Front: L C R, Side: L R, LFE
Sampling rate : 48.0 kHz
Frame rate : 93.750 FPS (512 SPF)
Bit depth : 24 bits
Compression mode : Lossless / Lossy
Stream size : 4.40 GiB (7%)
Title : AVO [Volodarskiy]
Language : Russian
Default : No
Forced : No
Audio #4
ID : 5
Format : DTS
Format/Info : Digital Theater Systems
Format profile : MA / Core
Mode : 16
Format settings, Endianness : Big
Codec ID : A_DTS
Duration : 2 h 4 min
Bit rate mode : Variable / Constant
Bit rate : 5 033 kb/s / 1 509 kb/s
Channel(s) : 8 channels / 6 channels
Channel positions : Front: L C R, Side: L R, Back: L R, LFE / Front: L C R, Side: L R, LFE
Sampling rate : 48.0 kHz
Frame rate : 93.750 FPS (512 SPF)
Bit depth : 24 bits
Compression mode : Lossless / Lossy
Stream size : 4.38 GiB (7%)
Title : Original
Language : English
Default : No
Forced : No
Text #1
ID : 6
Format : UTF-8
Codec ID : S_TEXT/UTF8
Codec ID/Info : UTF-8 Plain Text
Duration : 1 h 17 min
Bit rate : 0 b/s
Count of elements : 15
Stream size : 391 Bytes (0%)
Title : Forced
Language : Russian
Default : Yes
Forced : Yes
Text #2
ID : 7
Format : UTF-8
Codec ID : S_TEXT/UTF8
Codec ID/Info : UTF-8 Plain Text
Duration : 1 h 57 min
Bit rate : 50 b/s
Count of elements : 944
Stream size : 43.4 KiB (0%)
Title : Full
Language : Russian
Default : No
Forced : No
Text #3
ID : 8
Format : UTF-8
Codec ID : S_TEXT/UTF8
Codec ID/Info : UTF-8 Plain Text
Duration : 1 h 57 min
Bit rate : 55 b/s
Count of elements : 971
Stream size : 47.6 KiB (0%)
Title : По дубляжу с правками от Евгения Воронина
Language : Russian
Default : No
Forced : No
Text #4
ID : 9
Format : UTF-8
Codec ID : S_TEXT/UTF8
Codec ID/Info : UTF-8 Plain Text
Duration : 1 h 57 min
Bit rate : 51 b/s
Count of elements : 951
Stream size : 44.3 KiB (0%)
Title : По дубляжу с правками от неизвестного бойца
Language : Russian
Default : No
Forced : No
Text #5
ID : 10
Format : UTF-8
Codec ID : S_TEXT/UTF8
Codec ID/Info : UTF-8 Plain Text
Duration : 1 h 57 min
Bit rate : 31 b/s
Count of elements : 950
Stream size : 27.5 KiB (0%)
Title : Full
Language : English
Default : No
Forced : No
Text #6
ID : 11
Format : UTF-8
Codec ID : S_TEXT/UTF8
Codec ID/Info : UTF-8 Plain Text
Duration : 1 h 57 min
Bit rate : 33 b/s
Count of elements : 1020
Stream size : 28.5 KiB (0%)
Title : SDH
Language : English
Default : No
Forced : No
Text #7
ID : 12
Format : UTF-8
Codec ID : S_TEXT/UTF8
Codec ID/Info : UTF-8 Plain Text
Duration : 1 h 57 min
Bit rate : 37 b/s
Count of elements : 1026
Stream size : 32.7 KiB (0%)
Title : SDH Colored
Language : English
Default : No
Forced : No
Menu
00:00:00.000 : en:Chapter 1
00:04:31.605 : en:Chapter 2
00:12:52.063 : en:Chapter 3
00:21:25.535 : en:Chapter 4
00:27:20.389 : en:Chapter 5
00:35:30.587 : en:Chapter 6
00:40:07.030 : en:Chapter 7
00:46:16.274 : en:Chapter 8
00:52:22.431 : en:Chapter 9
01:01:59.967 : en:Chapter 10
01:07:59.659 : en:Chapter 11
01:16:26.082 : en:Chapter 12
01:22:08.424 : en:Chapter 13
01:25:32.002 : en:Chapter 14
01:30:22.793 : en:Chapter 15
01:36:30.619 : en:Chapter 16
01:40:29.357 : en:Chapter 17
01:46:27.673 : en:Chapter 18
01:53:05.571 : en:Chapter 19
01:58:24.097 : en:Chapter 20

Релиз от: Автор релиза:
Подпишись на меня, кликни по картинке > :



   Похожие торренты   Торрент   Размер 
В этой теме нет новых непрочитанных сообщений. Обливион / Oblivion (2013) WEB-DLRip 2160p | 4K Ultra HD

20 | 2

53.3 ГБ

В этой теме нет новых непрочитанных сообщений. Обливион / Oblivion (2013) BDRip 720p от HELLYWOOD | Лицензия

524 | 58

5.37 ГБ

В этой теме нет новых непрочитанных сообщений. Форсаж 6 / Furious 6 (2013) UHD BDRemux 2160p от ExKinoRay | 4K | HDR | D, A | Лицензия

4 | 10

47.75 ГБ

В этой теме нет новых непрочитанных сообщений. РЭД 2 / Red 2 (2013) UHD BDRemux 2160p от ExKinoRay | 4K | HDR | Dolby Vision | D, A | Лицензия

19 | 20

73.01 ГБ

В этой теме нет новых непрочитанных сообщений. Стартрек: Возмездие / Star Trek Into Darkness (2013) UHD BDRemux 2160p от ExKinoRay | 4K | HDR | Лицензия

10 | 6

50.26 ГБ

В этой теме нет новых непрочитанных сообщений. Обливион / Oblivion (2013) BDRip-AVC от HQ-ViDEO

837 | 31

2.18 ГБ

В этой теме нет новых непрочитанных сообщений. Обливион / Oblivion (2013) BDRip 1080p

1299 | 64

10.06 ГБ




Вы не можете начинать темы
Вы не можете отвечать на сообщения
Вы не можете редактировать свои сообщения
Вы не можете удалять свои сообщения
Вы не можете добавлять вложения

Перейти:  
 Вход
ppkBB3cker v.2 © 2008-2014 @ PPK
[ Time : 0.031s | 17 Queries | GZIP : Off ]

cron