img image001 image001 image001 image001 image001 image001 image001 image001 image001 image001 image001 image001 image001 image001 image001

Planets Sun Sun Sun
Статистика раздачи
Автор: Nickolas3434 | Размер: 3.82 ГБ | Добавлен: 15 дек 2017
Раздают: 2    Качают: 3
Скачать торрент
Скачать торрент
Описание торрента

СообщениеДобавлено: 15 дек 2017 

Информация о фильме
Название: Царь скорпионов
Оригинальное название: The Scorpion King
Год выхода: 2002
Жанр: фэнтези, боевик, триллер, приключения
Режиссер: Чак Рассел
В ролях: Дуэйн Джонсон, Стивен Брэнд, Майкл Кларк Дункан, Келли Ху, Бернард Хилл, Грант Хеслов, Питер Фасинелли, Ральф Мюллер, Брэнском Ричмонд, Роджер Рис
О фильме:
Эта история произошла 5 тыс. лет назад в Египте, еще задолго до постройки первых пирамид. Злой правитель и могущественный воин Мемнон решил поработить все народы, живущие в пустыне. Со своей многочисленной армией Мемнон выигрывает одно сражение за другим. Удача сопутствует жестокому злодею, потому что все злодеяния Мемнон совершает, опираясь на предсказания своего провидца. Осталась только горстка непокорных народов в пустыне, которые еще противостоят власти Мемнона. Немногие оставшиеся племена нанимают воина акадца Метаеса — человека убивающего за деньги — чтобы тот убил провидца Мемнона. Оказавшись во вражеском лагере, Метаес к своему удивлению обнаруживает, что ясновидец — это красивая молодая женщина Кассандра. Он оставляет ее в живых и берет с собой в пустыню, чтобы выманить Мемнона из его города-крепости Гоморры. Единственное, что может успокоить теперь Метаеса — это смерть Мемнона…

Страна: США
Продолжительность: 01:31:29
Перевод: Профессиональный (дублированный)
Файл
Кодек: HEVC x265 10bit
Качество: BDRip-HEVC 1080p
Видео: 1918x816, 23.976 кадр/сек, 5218 Кбит/сек, (Main 10@L5@High) 10bit
Звук:
Аудио1: Русская, AC3 384 Кбит/сек, 6 канала(ов),16bit 48,0 КГц
Аудио2: English, AC3 384 Кбит/сек, 6 канала(ов),16bit 48,0 КГц
Субтитры: Русские, English
Навигация по главам: Есть
General
Unique ID : 254947102670134389520409941725839427341 (0xBFCD06A3222566DFAE69D9682585070D)
Complete name : T:HDFILMSThe Scorpion King (2002) BDRip 1080p [HEVC] 10Bit.mkv
Format : Matroska
Format version : Version 4 / Version 2
File size : 3.82 GiB
Duration : 1 h 31 min
Overall bit rate : 5 982 kb/s
Movie name : rip_by_Cthulhu
Encoded date : UTC 2017-12-12 17:37:28
Writing application : mkvmerge v18.0.0 ('Apricity') 64-bit
Writing library : libebml v1.3.5 + libmatroska v1.4.8
Cover : Yes
Attachments : cover.jpg
Video
ID : 1
Format : HEVC
Format/Info : High Efficiency Video Coding
Format profile : Main 10@L5@High
Codec ID : V_MPEGH/ISO/HEVC
Duration : 1 h 31 min
Bit rate : 5 218 kb/s
Width : 1 918 pixels
Height : 816 pixels
Display aspect ratio : 2.35:1
Frame rate mode : Constant
Frame rate : 23.976 (24000/1001) FPS
Color space : YUV
Chroma subsampling : 4:2:0
Bit depth : 10 bits
Bits/(Pixel*Frame) : 0.139
Stream size : 3.33 GiB (87%)
Writing library : x265 2.6+8-fc0570b8d8f9:[Windows][GCC 7.1.0][64 bit] 10bit
Encoding settings : cpuid=1050111 / frame-threads=5 / numa-pools=4 / wpp / no-pmode / no-pme / no-psnr / no-ssim / log-level=3 / input-csp=1 / input-res=1918x816 / interlace=0 / total-frames=0 / level-idc=50 / high-tier=1 / uhd-bd=0 / ref=4 / no-allow-non-conformance / no-repeat-headers / annexb / no-aud / no-hrd / info / hash=0 / no-temporal-layers / open-gop / min-keyint=23 / keyint=240 / gop-lookahead=0 / bframes=10 / b-adapt=2 / b-pyramid / bframe-bias=0 / rc-lookahead=40 / lookahead-slices=5 / scenecut=40 / no-intra-refresh / ctu=64 / min-cu-size=8 / no-rect / no-amp / max-tu-size=32 / tu-inter-depth=3 / tu-intra-depth=3 / limit-tu=0 / rdoq-level=2 / dynamic-rd=0.00 / no-ssim-rd / signhide / no-tskip / nr-intra=0 / nr-inter=0 / no-constrained-intra / strong-intra-smoothing / max-merge=3 / limit-refs=3 / no-limit-modes / me=2 / subme=6 / merange=57 / temporal-mvp / weightp / weightb / no-analyze-src-pics / deblock=-3:-3 / no-sao / no-sao-non-deblock / rd=3 / no-early-skip / rskip / no-fast-intra / no-tskip-fast / no-cu-lossless / no-b-intra / no-splitrd-skip / rdpenalty=0 / psy-rd=2.00 / psy-rdoq=0.00 / no-rd-refine / analysis-reuse-mode=0 / no-lossless / cbqpoffs=0 / crqpoffs=0 / rc=crf / crf=20.0 / qcomp=0.60 / qpstep=4 / stats-write=0 / stats-read=0 / vbv-maxrate=50000 / vbv-bufsize=35714 / vbv-init=0.9 / crf-max=30.0 / crf-min=0.0 / ipratio=1.40 / pbratio=1.30 / aq-mode=1 / aq-strength=0.80 / cutree / zone-count=0 / no-strict-cbr / qg-size=32 / no-rc-grain / qpmax=69 / qpmin=0 / no-const-vbv / sar=1 / overscan=0 / videoformat=5 / range=0 / colorprim=2 / transfer=2 / colormatrix=2 / chromaloc=0 / display-window=0 / max-cll=0,0 / min-luma=0 / max-luma=1023 / log2-max-poc-lsb=8 / vui-timing-info / vui-hrd-info / slices=1 / no-opt-qp-pps / no-opt-ref-list-length-pps / no-multi-pass-opt-rps / scenecut-bias=0.05 / no-opt-cu-delta-qp / no-aq-motion / no-hdr / no-hdr-opt / no-dhdr10-opt / analysis-reuse-level=5 / scale-factor=0 / refine-intra=0 / refine-inter=0 / refine-mv=0 / no-limit-sao / ctu-info=0 / no-lowpass-dct / refine-mv-type=0 / copy-pic=1
Language : English
Default : Yes
Forced : No
Color range : Full
Audio #1
ID : 2
Format : AC-3
Format/Info : Audio Coding 3
Format settings, Endianness : Big
Codec ID : A_AC3
Duration : 1 h 31 min
Bit rate mode : Constant
Bit rate : 384 kb/s
Channel(s) : 6 channels
Channel positions : Front: L C R, Side: L R, LFE
Sampling rate : 48.0 kHz
Frame rate : 31.250 FPS (1536 SPF)
Bit depth : 16 bits
Compression mode : Lossy
Stream size : 251 MiB (6%)
Language : Russian
Service kind : Complete Main
Default : Yes
Forced : No
Audio #2
ID : 3
Format : AC-3
Format/Info : Audio Coding 3
Format settings, Endianness : Big
Codec ID : A_AC3
Duration : 1 h 31 min
Bit rate mode : Constant
Bit rate : 384 kb/s
Channel(s) : 6 channels
Channel positions : Front: L C R, Side: L R, LFE
Sampling rate : 48.0 kHz
Frame rate : 31.250 FPS (1536 SPF)
Bit depth : 16 bits
Compression mode : Lossy
Stream size : 251 MiB (6%)
Language : English
Service kind : Complete Main
Default : No
Forced : No
Text #1
ID : 4
Format : UTF-8
Codec ID : S_TEXT/UTF8
Codec ID/Info : UTF-8 Plain Text
Duration : 1 h 23 min
Bit rate : 49 b/s
Count of elements : 610
Stream size : 30.0 KiB (0%)
Language : Russian
Default : Yes
Forced : No
Text #2
ID : 5
Format : UTF-8
Codec ID : S_TEXT/UTF8
Codec ID/Info : UTF-8 Plain Text
Duration : 1 h 23 min
Bit rate : 32 b/s
Count of elements : 616
Stream size : 19.8 KiB (0%)
Language : English
Default : No
Forced : No
Menu
00:00:00.000 : :Глава 1
00:03:48.019 : :Глава 2
00:05:04.012 : :Глава 3
00:08:33.179 : :Глава 4
00:11:34.443 : :Глава 5
00:15:59.541 : :Глава 6
00:21:34.710 : :Глава 7
00:27:40.158 : :Глава 8
00:29:49.496 : :Глава 9
00:32:52.929 : :Глава 10
00:39:11.766 : :Глава 11
00:45:16.004 : :Глава 12
00:51:00.515 : :Глава 13
00:56:12.118 : :Глава 14
01:03:42.109 : :Глава 15
01:06:50.631 : :Глава 16
01:11:35.874 : :Глава 17
01:19:41.151 : :Глава 18
01:21:43.356 : :Глава 19
01:24:42.410 : :Глава 20


Релиз от: Cthulhu



   Похожие торренты   Торрент   Размер 
В этой теме нет новых непрочитанных сообщений. Царь скорпионов / The Scorpion King (2002) BDRip 1080p | D, P, P2, A

47 | 13

8.23 ГБ

В этой теме нет новых непрочитанных сообщений. Царь скорпионов / The Scorpion King (2002) BDRip 1080p

75 | 21

4.37 ГБ

В этой теме нет новых непрочитанных сообщений. Царь скорпионов 1, 2 / The Scorpion King, The Scorpion King: Rise of a Warrior (2002,2008) BDRip 720p от NOLIMITS-TEAM

8 | 16

4.36 ГБ

В этой теме нет новых непрочитанных сообщений. Царь скорпионов / The Scorpion King (2002) WEB-DL 1080p | Open Matte | D, P, A

10 | 3

10.34 ГБ

В этой теме нет новых непрочитанных сообщений. Царь скорпионов / The Scorpion King (2002) BDRip от HQCLUB

334 | 24

1.45 ГБ

В этой теме нет новых непрочитанных сообщений. Царь Скорпионов / Scorpion King, The (2002) BDRip от HQ-ViDEO

102 | 11

1.46 ГБ

В этой теме нет новых непрочитанных сообщений. Царь скорпионов / The Scorpion King (2002) BDRip-AVC от RG WazZzuP

174 | 17

1.47 ГБ




Вы не можете начинать темы
Вы не можете отвечать на сообщения
Вы не можете редактировать свои сообщения
Вы не можете удалять свои сообщения
Вы не можете добавлять вложения

Перейти:  
Для Мосгорсуда, Роскомнадзора и рекламодателей: mosgorsud-torrent[собачка]yandex.ru
 Вход
ppkBB3cker v.2 © 2008-2014 @ PPK
[ Time : 0.037s | 20 Queries | GZIP : Off ]

cron