img image001 image001 image001 image001 image001 image001 image001 image001 image001 image001 image001 image001 image001 image001 image001

Planets Sun Sun Sun
Статистика раздачи
Автор: Nickolas3434 | Размер: 3.05 ГБ | Добавлен: 15 дек 2017
Раздают: 12    Качают: 0
Скачать торрент
Скачать торрент
Описание торрента

СообщениеДобавлено: 15 дек 2017 

Информация о фильме
Наименование: Выпущенный из клетки
Оригинальное наименование: Uncaged
Произведено: США
Категория: ужасы, триллер, комедия
Режиссер постановщик: Даниел Робинс
В главных ролях: Бен Гетз, Кайл Киркпатрик, Полина Сингер, Гаррет Хендрикс, Мишель Камерон, Джин Джонс, Алекс Эмануэл, Йосеф Подольски, Джонни М. Фолкнер
О фильме: После нескольких дней блуждания по лесу проблемный подросток прикрепляет камеру ремнем к себе, чтобы заснять, как он оказался здесь и для чего — чтобы раскрыть давнюю тайну, связанную с этим местом.

Файл
Качество: BDRip 720p
Видео данные: MKV, 1280x720 (16:9), 23.976 fps, 4000 Кбит/с
Аудио данные: AC3, 2 ch, 640 Кбит/с
Перевод: Любительский многоголосый (GreenРай Studio)
Продолжительность: 01:35:38
Над релизом работали:
Состав дикторов: Василий Чупров и Нана Саркисян, Анна Кириленко
Руководитель проекта и координатор: Евгений Овчаренко
Организатор и координатор: Никита Марков
Пиар менеджер студии: Игорь Обухов
Техническая поддержка: Александр Методий
Над переводом работала: Юлия Лазаренко
Релиз-группа: GreenРай Studio
General
Unique ID : 183076501359083049413120137897839414311 (0x89BB4069639F853BB98770C888BBCC27)
Complete name : D:Выпущенный из клеткиUncaged.2017.P.BDRip.720p.mkv
Format : Matroska
Format version : Version 4 / Version 2
File size : 3.05 GiB
Duration : 1 h 35 min
Overall bit rate mode : Constant
Overall bit rate : 4 557 kb/s
Movie name : Creep.2.2017.1080p.WEB-DL.DD5.1.H264-FGT
Encoded date : UTC 2017-12-12 15:37:35
Writing application : mkvmerge v8.3.0 ('Over the Horizon') 64bit
Writing library : libebml v1.3.1 + libmatroska v1.4.2
Video
ID : 1
Format : AVC
Format/Info : Advanced Video Codec
Format profile : Main@L3.2
Format settings, CABAC : Yes
Format settings, ReFrames : 3 frames
Codec ID : V_MPEG4/ISO/AVC
Duration : 1 h 35 min
Bit rate mode : Constant
Bit rate : 4 000 kb/s
Width : 1 280 pixels
Height : 720 pixels
Display aspect ratio : 16:9
Frame rate mode : Constant
Frame rate : 23.976 (23976/1000) FPS
Standard : NTSC
Color space : YUV
Chroma subsampling : 4:2:0
Bit depth : 8 bits
Scan type : Progressive
Bits/(Pixel*Frame) : 0.181
Stream size : 2.62 GiB (86%)
Language : English
Default : Yes
Forced : No
Color range : Limited
Audio
ID : 2
Format : AC-3
Format/Info : Audio Coding 3
Mode extension : CM (complete main)
Format settings, Endianness : Big
Codec ID : A_AC3
Duration : 1 h 35 min
Bit rate mode : Constant
Bit rate : 640 kb/s
Channel(s) : 2 channels
Channel positions : Front: L R
Sampling rate : 48.0 kHz
Frame rate : 31.250 FPS (1536 spf)
Compression mode : Lossy
Stream size : 439 MiB (14%)
Default : Yes
Forced : No

ВНИМАНИЕ! Присутствует реклама!

Релиз от:



   Похожие торренты   Торрент   Размер 
В этой теме нет новых непрочитанных сообщений. Выпущенный из клетки / Uncaged (2016) WEB-DLRip | L1

1485 | 67

1.45 ГБ

В этой теме нет новых непрочитанных сообщений. Выпущенный из клетки / Uncaged (2016) HDRip | L

54 | 0

1.37 ГБ

В этой теме нет новых непрочитанных сообщений. Внутренняя Вселенная: Тайная жизнь клетки / Secret Universe: The Hidden Life of the Cell (2012) HDTVRip 720p | L1

35 | 3

1.54 ГБ

В этой теме нет новых непрочитанных сообщений. Fighters Uncaged (2011) XBOX360

85 | 11

7.3 ГБ

В этой теме нет новых непрочитанных сообщений. Am Tierpark - Uncaged (2015) FLAC

36 | 2

451.84 МБ

В этой теме нет новых непрочитанных сообщений. Am Tierpark - Uncaged (2015) MP3 от BestSound ExKinoRay

19 | 3

159.83 МБ

В этой теме нет новых непрочитанных сообщений. Красные клетки / Deep Red (1994) DVDRip

4 | 13

927.02 МБ




Вы не можете начинать темы
Вы не можете отвечать на сообщения
Вы не можете редактировать свои сообщения
Вы не можете удалять свои сообщения
Вы не можете добавлять вложения

Перейти:  
Для Мосгорсуда, Роскомнадзора и рекламодателей: mosgorsud-torrent[собачка]yandex.ru
 Вход
ppkBB3cker v.2 © 2008-2014 @ PPK
[ Time : 0.048s | 18 Queries | GZIP : Off ]

cron