img image001 image001 image001 image001 image001 image001 image001 image001 image001 image001 image001 image001 image001 image001 image001 image001

Planets Sun Sun Sun
Статистика раздачи
Автор: Nickolas3434 | Размер: 1.21 ГБ | Добавлен: 15 дек 2017
Раздают: 21    Качают: 3
Скачать торрент
Скачать торрент
Описание торрента

СообщениеДобавлено: 15 дек 2017 

Год выпуска: 2017
Оригинальное название: The Beguiled
Страна: США
Жанр: триллер, драма
Возраст: 18+
Режиссер: София Коппола
В ролях: Колин Фаррелл, Николь Кидман, Кирстен Данст, Элль Фэннинг, Уна Лоуренс, Энгаури Райс, Эддисон Рики, Эмма Ховард, Уэйн Пер, Мэтт Стори
Описание: Закрытый пансион для девушек был надежно спрятан от внешнего мира до того дня, пока искавший помощи и укрытия молодой человек не ступил за его ворота. С этого мгновения таинственный особняк оказался в плену рокового искушения…
Продолжительность: 01:33:08
Перевод: Дублированный [Лицензия Blu-ray EUR]
Оригинальная дорожка: есть
Автор рипа:
Качество видео: BDRip 720p Исходник: Blu-Ray Remux (1080p) Формат: mp4
Видео кодек: MPEG-4 AVC Аудио кодек: AAC
Видео: 1196x720 (5:3) at 23.976 fps, AVC at 1 522 kbps avg, 0.074 bit/pixel
Аудио №1 Rus: 48.0 KHz, AAC, 2 ch, 160.0 Kbps
Аудио №2 Eng: 48.0 KHz, AAC, 2 ch, 160.0 Kbps
Субтитры: русские (форсированные, полные), английские (полные)
Навигация по главам: есть
Размер: 1.21 GiB
avs [info]: 1196x720p 1:1 @ 24000/1001 fps (cfr)
x264 [info]: using SAR=1/1
x264 [info]: using cpu capabilities: MMX2 SSE2Fast SSSE3 Cache64
x264 [info]: profile High, level 4.1
x264 [info]: frame I:986 Avg QP:12.82 size: 91449
x264 [info]: frame P:20637 Avg QP:15.93 size: 23117
x264 [info]: frame B:112369 Avg QP:18.00 size: 4412
x264 [info]: consecutive B-frames: 1.0% 0.4% 1.7% 3.4% 7.3% 48.2% 9.8% 3.4% 4.4% 2.4% 5.5% 7.0% 5.6%
x264 [info]: mb I I16..4: 10.6% 68.3% 21.1%
x264 [info]: mb P I16..4: 1.0% 3.9% 0.6% P16..4: 46.4% 23.0% 15.0% 0.0% 0.0% skip:10.2%
x264 [info]: mb B I16..4: 0.0% 0.1% 0.0% B16..8: 38.6% 3.9% 0.7% direct: 1.6% skip:55.0% L0:46.0% L1:50.1% BI: 3.8%
x264 [info]: 8x8 transform intra:70.2% inter:58.9%
x264 [info]: coded y,uvDC,uvAC intra: 67.2% 62.3% 39.3% inter: 9.6% 8.2% 0.5%
x264 [info]: i16 v,h,dc,p: 56% 11% 7% 26%
x264 [info]: i8 v,h,dc,ddl,ddr,vr,hd,vl,hu: 21% 10% 27% 5% 8% 9% 7% 8% 6%
x264 [info]: i4 v,h,dc,ddl,ddr,vr,hd,vl,hu: 31% 13% 18% 6% 8% 8% 6% 6% 4%
x264 [info]: i8c dc,h,v,p: 63% 14% 18% 4%
x264 [info]: Weighted P-Frames: Y:2.8% UV:1.1%
x264 [info]: ref P L0: 46.4% 6.9% 18.7% 7.5% 6.4% 4.9% 4.5% 2.3% 2.4% 0.0% 0.0%
x264 [info]: ref B L0: 68.2% 13.5% 7.9% 3.6% 2.7% 2.3% 1.4% 0.3%
x264 [info]: ref B L1: 90.6% 9.4%
x264 [info]: kb/s:1521.75
encoded 133992 frames, 1.89 fps, 1521.75 kb/s

General
Complete name : ...Rokovoe-iskushenie-2017_KinoGadget.mp4
Format : MPEG-4
Format profile : Base Media
Codec ID : isom (isom)
File size : 1.21 GiB
Duration : 1 h 33 min
Overall bit rate mode : Variable
Overall bit rate : 1 853 kb/s
Movie name : Роковое искушение | KinoGadget
Performer : София Коппола
Director : София Коппола
Actor : Колин Фаррелл / Николь Кидман / Кирстен Данст / Элль Фэннинг / Уна Лоуренс / Энгаури Райс / Эддисон Рики / Эмма Ховард / Уэйн Пер / Мэтт Стори
Screenplay by : Альберт Мальц / Ирен Кэмп / София Коппола
Producer : Роман Коппола / София Коппола / Юри Хенли
Genre : Drama, Thriller
ContentType : Short Film
Recorded date : 2017
Encoded date : UTC 2017-12-13 10:55:33
Tagged date : UTC 2017-12-13 11:12:01
Cover : Yes
ContentRating : mpaa|R|400|
LongDeion : Закрытый пансион для девушек был надежно спрятан от внешнего мира до того дня, пока искавший помощи и укрытия молодой человек не ступил за его ворота. С этого мгновения таинственный особняк оказался в плену рокового искушения…
HDVideo : Yes
Video
ID : 1
Format : AVC
Format/Info : Advanced Video Codec
Format profile : High@L4.1
Format settings : CABAC / 9 Ref Frames
Format settings, CABAC : Yes
Format settings, ReFrames : 9 frames
Codec ID : avc1
Codec ID/Info : Advanced Video Coding
Duration : 1 h 33 min
Bit rate : 1 522 kb/s
Maximum bit rate : 8 538 kb/s
Width : 1 196 pixels
Height : 720 pixels
Display aspect ratio : 5:3
Frame rate mode : Constant
Frame rate : 23.976 (24000/1001) FPS
Color space : YUV
Chroma subsampling : 4:2:0
Bit depth : 8 bits
Scan type : Progressive
Bits/(Pixel*Frame) : 0.074
Stream size : 1 014 MiB (82%)
Writing library : x264 core 152 r2851 ba24899
Encoding settings : cabac=1 / ref=9 / deblock=1:-2:-1 / analyse=0x3:0x113 / me=umh / subme=7 / psy=1 / psy_rd=1.00:0.00 / mixed_ref=1 / me_range=32 / chroma_me=1 / trellis=2 / 8x8dct=1 / cqm=0 / deadzone=21,11 / fast_pskip=0 / chroma_qp_offset=-2 / threads=3 / lookahead_threads=1 / sliced_threads=0 / nr=0 / decimate=1 / interlaced=0 / bluray_compat=0 / constrained_intra=0 / bframes=12 / b_pyramid=2 / b_adapt=2 / b_bias=0 / direct=1 / weightb=1 / open_gop=0 / weightp=2 / keyint=250 / keyint_min=25 / scenecut=40 / intra_refresh=0 / rc_lookahead=60 / rc=crf / mbtree=1 / crf=18.0 / qcomp=0.60 / qpmin=0 / qpmax=69 / qpstep=4 / vbv_maxrate=62500 / vbv_bufsize=78125 / crf_max=0.0 / nal_hrd=none / filler=0 / ip_ratio=1.40 / aq=1:1.00
Encoded date : UTC 2017-12-13 06:31:06
Tagged date : UTC 2017-12-13 10:56:11
Audio #1
ID : 2
Format : AAC
Format/Info : Advanced Audio Codec
Format profile : LC
Codec ID : mp4a-40-2
Duration : 1 h 33 min
Bit rate mode : Variable
Bit rate : 160 kb/s
Maximum bit rate : 165 kb/s
Channel(s) : 2 channels
Channel positions : Front: L R
Sampling rate : 48.0 kHz
Frame rate : 46.875 FPS (1024 SPF)
Compression mode : Lossy
Stream size : 107 MiB (9%)
Language : Russian
Encoded date : UTC 2017-12-13 06:38:11
Tagged date : UTC 2017-12-13 10:56:11
Audio #2
ID : 3
Format : AAC
Format/Info : Advanced Audio Codec
Format profile : LC
Codec ID : mp4a-40-2
Duration : 1 h 33 min
Bit rate mode : Variable
Bit rate : 160 kb/s
Maximum bit rate : 165 kb/s
Channel(s) : 2 channels
Channel positions : Front: L R
Sampling rate : 48.0 kHz
Frame rate : 46.875 FPS (1024 SPF)
Compression mode : Lossy
Stream size : 107 MiB (9%)
Language : English
Encoded date : UTC 2017-12-13 09:16:44
Tagged date : UTC 2017-12-13 10:56:11
Text #1
ID : 4
Format : Timed Text
Codec ID : tx3g
Duration : 24 min 57 s
Bit rate mode : Variable
Bit rate : 1 b/s
Stream size : 208 Bytes (0%)
Language : Russian
Forced : No
Encoded date : UTC 2017-12-13 10:56:11
Tagged date : UTC 2017-12-13 10:56:11
Text #2
ID : 5
Format : Timed Text
Codec ID : tx3g
Duration : 1 h 28 min
Bit rate mode : Variable
Bit rate : 73 b/s
Stream size : 47.2 KiB (0%)
Language : Russian
Forced : No
Encoded date : UTC 2017-12-13 10:56:11
Tagged date : UTC 2017-12-13 10:56:11
Text #3
ID : 6
Format : Timed Text
Codec ID : tx3g
Duration : 1 h 28 min
Bit rate mode : Variable
Bit rate : 58 b/s
Stream size : 37.4 KiB (0%)
Language : English
Forced : No
Encoded date : UTC 2017-12-13 10:56:11
Tagged date : UTC 2017-12-13 10:56:11
Menu
00:00:00.000 : Chapter 1
00:05:49.641 : Chapter 2
00:09:24.439 : Chapter 3
00:13:35.982 : Chapter 4
00:18:02.248 : Chapter 5
00:24:52.199 : Chapter 6
00:31:00.650 : Chapter 7
00:34:20.725 : Chapter 8
00:41:45.461 : Chapter 9
00:44:20.950 : Chapter 10
00:48:38.165 : Chapter 11
00:54:47.367 : Chapter 12
01:00:50.772 : Chapter 13
01:04:36.956 : Chapter 14
01:11:04.844 : Chapter 15
01:13:30.489 : Chapter 16
01:16:26.665 : Chapter 17
01:21:33.472 : Chapter 18
01:26:06.286 : Chapter 19
01:29:22.732 : Chapter 20



Данный рип предназначен для просмотра на мобильных гаджетах с поддержкой формата mp4



   Похожие торренты   Торрент   Размер 
В этой теме нет новых непрочитанных сообщений. Роковое искушение / The Beguiled (2017) BDRip 720p | Лицензия

81 | 6

5.24 ГБ

В этой теме нет новых непрочитанных сообщений. Роковое искушение / The Beguiled (2017) BDRip 720p от k.e.n & MegaPeer | Лицензия

56 | 6

3.48 ГБ

В этой теме нет новых непрочитанных сообщений. Роковое искушение / The Beguiled (2017) BDRip-AVC от HELLYWOOD | Лицензия

48 | 12

1.46 ГБ

В этой теме нет новых непрочитанных сообщений. Роковое искушение / The Beguiled (2017) BDRip-AVC от OlLanDGroup | Лицензия

56 | 3

1.63 ГБ

В этой теме нет новых непрочитанных сообщений. Роковое искушение / The Beguiled (2017) BDRip 1080p | Лицензия

107 | 5

8.94 ГБ

В этой теме нет новых непрочитанных сообщений. Роковое искушение / The Beguiled (2017) BDRip от MegaPeer | Лицензия

1474 | 23

1.45 ГБ

В этой теме нет новых непрочитанных сообщений. Роковое искушение / The Beguiled (2017) BDRip от ExKinoRay | Лицензия

48 | 3

1.46 ГБ




Вы не можете начинать темы
Вы не можете отвечать на сообщения
Вы не можете редактировать свои сообщения
Вы не можете удалять свои сообщения
Вы не можете добавлять вложения

Перейти:  
 Вход
ppkBB3cker v.2 © 2008-2014 @ PPK
[ Time : 0.045s | 18 Queries | GZIP : Off ]

cron