img image001 image001 image001 image001 image001 image001 image001 image001 image001 image001 image001 image001 image001 image001 image001 image001

Planets Sun Sun Sun
Статистика раздачи
Автор: Nickolas3434 | Размер: 1.46 ГБ | Добавлен: 15 дек 2017
Раздают: 19    Качают: 3
Скачать торрент
Скачать торрент
Описание торрента

СообщениеДобавлено: 15 дек 2017 

Информация о фильме
Название: Короли солнца
Оригинальное название: Kings of the Sun
Год выхода: 1963
Жанр: вестерн, приключения
Режиссер: Дж. Ли Томпсон
В ролях: Юл Бриннер, Джордж Чакирис, Ширли Энн Филд, Ричард Бэйзхарт, Брэд Декстер, Барри Морс, Армандо Силвестри, Лео Гордон, Виктория Ветри, Руди Солари, Хосе Морено, Форд Рейни
О фильме:
Чтобы сбежать от коварных врагов, молодой король майя Балам ведет своих людей на север через Мексиканский залив к побережью, которое позже стане территорией Соединенных Штатов. На новой земле они сталкиваются с племенем коренных американцев, предводителем которых является вождь по имени Черный Орел. Конфликт двух племен осложняется еще и тем, что и король Балам, и Черный Орел влюбляются в прекрасную принцессу майя.

Страна: США
Студия: Mirisch Corporation
Продолжительность: 01:43:52
Перевод: Профессиональный (многоголосый закадровый)
Файл
Кодек: Н.264
Качество: DVDRip-AVC
Видео: AVC, 720x304 (2.35:1), 25.000 fps, 1 624 Kbps (0.297 bit/pixel)
Звук:
Аудио #1: AC-3, 48.0 KHz, 2 ch, 192 Kbps, CBR (Russian)
Аудио #2: AC-3, 48.0 KHz, 2 ch, 192 Kbps, CBR (English)
Субтитры: отсутствуют
Скриншоты:

Релиз от: Релиз от: Группа в ВК &
Полное имя : D:ФИЛЬМЫКороли солнца.1963 (Юл Бриннер).mkv
Формат : Matroska
Версия формата : Version 2
Размер файла : 1,46 Гбайт
Продолжительность : 1 ч. 43 м.
Общий поток : 2010 Кбит/сек
Дата кодирования : UTC 2017-12-11 10:57:28
Программа кодирования : mkvmerge v5.3.0 ('I could have danced') built on Feb 9 2012 10:38:07
Библиотека кодирования : libebml v1.2.3 + libmatroska v1.3.0
Attachments : poster 5.jpg
Видео
Идентификатор : 1
Формат : AVC
Формат/Информация : Advanced Video Codec
Профиль формата : High@L4.1
Параметр CABAC формата : Да
Параметр ReFrames формата : 11 кадров
Идентификатор кодека : V_MPEG4/ISO/AVC
Продолжительность : 1 ч. 43 м.
Битрейт : 1624 Кбит/сек
Ширина : 720 пикселей
Высота : 304 пикселя
Соотношение сторон : 2,35:1
Режим частоты кадров : Постоянный
Частота кадров : 25,000 кадров/сек
Цветовое пространство : YUV
Субдискретизация насыщенности : 4:2:0
Битовая глубина : 8 бит
Тип развёртки : Прогрессивная
Бит/(Пиксели*Кадры) : 0.297
Размер потока : 1,15 Гбайт (79%)
Библиотека кодирования : x264 core 146 r2538 121396c
Настройки программы : cabac=1 / ref=11 / deblock=1:-3:-3 / analyse=0x3:0x133 / me=umh / subme=11 / psy=1 / psy_rd=1.00:0.00 / mixed_ref=1 / me_range=32 / chroma_me=1 / trellis=2 / 8x8dct=1 / cqm=0 / deadzone=21,11 / fast_pskip=0 / chroma_qp_offset=-2 / threads=12 / lookahead_threads=3 / sliced_threads=0 / nr=0 / decimate=0 / interlaced=0 / bluray_compat=0 / constrained_intra=0 / bframes=11 / b_pyramid=2 / b_adapt=2 / b_bias=0 / direct=3 / weightb=1 / open_gop=0 / weightp=2 / keyint=250 / keyint_min=25 / scenecut=40 / intra_refresh=0 / rc=2pass / mbtree=0 / bitrate=1624 / ratetol=1.0 / qcomp=0.60 / qpmin=0 / qpmax=69 / qpstep=4 / cplxblur=20.0 / qblur=0.5 / ip_ratio=1.40 / pb_ratio=1.30 / aq=3:0.80
Язык : English
Default : Да
Forced : Нет
Аудио #1
Идентификатор : 2
Формат : AC-3
Формат/Информация : Audio Coding 3
Расширение режима : CM (complete main)
Параметр Endianness формата : Big
Идентификатор кодека : A_AC3
Продолжительность : 1 ч. 43 м.
Вид битрейта : Постоянный
Битрейт : 192 Кбит/сек
Каналы : 2 канала
Расположение каналов : Front: L R
Частота : 48,0 КГц
Частота кадров : 31,250 кадров/сек (1536 spf)
Битовая глубина : 16 бит
Метод сжатия : С потерями
Размер потока : 143 Мбайт (10%)
Default : Да
Forced : Нет
Аудио #2
Идентификатор : 3
Формат : AC-3
Формат/Информация : Audio Coding 3
Расширение режима : CM (complete main)
Параметр Endianness формата : Big
Идентификатор кодека : A_AC3
Продолжительность : 1 ч. 43 м.
Вид битрейта : Постоянный
Битрейт : 192 Кбит/сек
Каналы : 2 канала
Расположение каналов : Front: L R
Частота : 48,0 КГц
Частота кадров : 31,250 кадров/сек (1536 spf)
Битовая глубина : 16 бит
Метод сжатия : С потерями
Размер потока : 143 Мбайт (10%)
Default : Нет
Forced : Нет



   Похожие торренты   Торрент   Размер 
В этой теме нет новых непрочитанных сообщений. Короли самоубийства / Suicide Kings (1997) DVDRip-AVC от Brazzass

150 | 16

2.7 ГБ

В этой теме нет новых непрочитанных сообщений. Короли лета / The Kings of Summer (2013) HDRip от -=HD-NET=- | КПК | A

23 | 2

349.86 МБ

В этой теме нет новых непрочитанных сообщений. Короли лета / The Kings of Summer (2013) HDRip | P

63 | 7

1.46 ГБ

В этой теме нет новых непрочитанных сообщений. Короли улиц / Street Kings (2008) HDRip-AVC | D

97 | 12

744.3 МБ

В этой теме нет новых непрочитанных сообщений. Короли лета / The Kings of Summer (2013) HDRip от Scarabey | P

75 | 20

1.45 ГБ

В этой теме нет новых непрочитанных сообщений. Короли лета / The Kings of Summer (2013) HDRip от Scarabey | P

127 | 52

743.6 МБ

В этой теме нет новых непрочитанных сообщений. Короли лета / The Kings of Summer (2013) BDRip 720p | A

6 | 2

6.4 ГБ




Вы не можете начинать темы
Вы не можете отвечать на сообщения
Вы не можете редактировать свои сообщения
Вы не можете удалять свои сообщения
Вы не можете добавлять вложения

Перейти:  
 Вход
ppkBB3cker v.2 © 2008-2014 @ PPK
[ Time : 0.028s | 18 Queries | GZIP : Off ]

cron