img image001 image001 image001 image001 image001 image001 image001 image001 image001 image001 image001 image001 image001 image001 image001 image001

Planets Sun Sun Sun
Статистика раздачи
Автор: Nickolas3434 | Размер: 10.06 ГБ | Добавлен: 15 дек 2017
Раздают: 1    Качают: 0
Скачать торрент
Скачать торрент
Описание торрента

СообщениеДобавлено: 15 дек 2017 

Адвокат дьявола

The Devil's Advocate

«У зла свой путь к победе»



Страна: США, Германия
Жанр: триллер, драма, детектив
Год выпуска: 1997
Продолжительность: 02:23:55
Перевод: Профессиональный (полное дублирование), Профессиональный (многоголосый, закадровый), Профессиональный (двухголосый, закадровый), Авторский
Субтитры: русские,английские.


Режиссер: Тейлор Хэкфорд / Taylor Hackford


В ролях: Киану Ривз (Kevin Lomax), Аль Пачино (John Milton), Шарлиз Терон (Mary Ann Lomax), Джеффри Джонс (Eddie Barzoon), Джудит Айви (Mrs. Alice Lomax), Конни Нильсен (Christabella Andreoli), Крэйг Т. Нельсон (Alexander Cullen), Тамара Тюни (Mrs. Jackie Heath), Рубен Сантьяго-Хадсон (Leamon Heath), Дебра Монк (Pam Garrety), Вито Руджинис (Mitch Weaver - Justice Department), Лора Хэррингтон (Melissa Black)


Описание: В Нью-Йорк по приглашению главы крупного юридического концерна прибывает Кевин Ломакс, молодой адвокат. До этого он был известен тем, что защищал исключительно негодяев и притом не проиграл ни одного процесса. На новом месте работы он вполне счастлив, он живет в роскошной квартире с любящей женой, его окружают интересные люди.



MPAA: R - Лицам до 17 лет обязательно присутствие взрослого


Семпл





Качество: BDRip 720p
Контейнер: MKV
Видео: AVC, 1280x534 (2.40:1), 5518 kbps, 23,976 fps, 0,337 bpp
Аудио №01: русский / AC3 / 5.1 / 48 kHz / 384 kbps / Дубляж
Аудио №02: русский / AC3 / 5.1 / 48 kHz / 640 kbps / MVO ( Карусель )
Аудио №03: русский / AC3 / 2.0 / 48 kHz / 192 kbps / MVO ( Телеканал Россия )
Аудио №04: русский / AC3 / 2.0 / 48 kHz / 192 kbps / MVO ( НТВ )
Аудио №05: русский / AC3 / 2.0 / 48 kHz / 192 kbps / DVO ( ТВ1000 )
Аудио №06: русский / AC3 / 5.1 / 48 kHz / 640 kbps / AVO ( Гаврилов )
Аудио №07: русский / AC3 / 5.1 / 48 kHz / 640 kbps / AVO ( Живов )
Аудио №08: русский / AC3 / 2.0 / 48 kHz / 192 kbps / AVO ( Визгунов )
Аудио №09: русский / AC3 / 5.1 / 48 kHz / 384 kbps / AVO ( Завгородний )
Аудио №10: русский / AC3 / 2.0 / 48 kHz / 192 kbps / AVO ( Латышев )
Аудио №11: английский / AC3 / 5.1 / 48 kHz / 640 kbps
Навигация по главам: есть


Формат : Matroska
Версия формата : Version 2
Размер файла : 10,1 Гбайт
Продолжительность : 2 ч. 23 м.
Общий поток : 10,0 Мбит/сек
Название фильма : = Адвокат дьявола / The Devil's Advocate (1997) BDRip 720p от KORSAR =
Дата кодирования : UTC 2017-12-13 10:49:01
Программа кодирования : mkvmerge v5.8.0 ('No Sleep / Pillow') built on Sep 2 2012 15:37:04
Библиотека кодирования : libebml v1.2.3 + libmatroska v1.3.0
Attachment : Yes
Видео
Идентификатор : 1
Формат : AVC
Формат/Информация : Advanced Video Codec
Профиль формата : High@L4.1
Параметр CABAC формата : Да
Параметр ReFrames формата : 12 кадров
Идентификатор кодека : V_MPEG4/ISO/AVC
Продолжительность : 2 ч. 23 м.
Битрейт : 5519 Кбит/сек
Ширина : 1280 пикселей
Высота : 534 пикселя
Соотношение сторон : 2,40:1
Режим частоты кадров : Постоянный
Частота кадров : 23,976 кадра/сек
Цветовое пространство : YUV
Субдискретизация насыщенности : 4:2:0
Битовая глубина : 8 бит
Тип развёртки : Прогрессивная
Бит/(Пиксели*Кадры) : 0.337
Размер потока : 5,55 Гбайт (55%)
Заголовок : Адвокат дьявола / The Devil's Advocate (1997) BDRip 720p от KORSAR
Библиотека кодирования : x264 core 148 r2744kMod b97ae06
Настройки программы : cabac=1 / ref=12 / deblock=1:-3:-3 / analyse=0x3:0x113 / me=umh / subme=11 / psy=1 / fade_compensate=0.00 / psy_rd=1.00:0.05 / mixed_ref=1 / me_range=32 / chroma_me=1 / trellis=2 / 8x8dct=1 / cqm=0 / deadzone=21,11 / fast_pskip=0 / chroma_qp_offset=-3 / threads=12 / lookahead_threads=3 / sliced_threads=0 / nr=0 / decimate=1 / interlaced=0 / bluray_compat=0 / constrained_intra=0 / bframes=10 / b_pyramid=2 / b_adapt=2 / b_bias=0 / direct=3 / weightb=1 / open_gop=0 / weightp=2 / keyint=240 / keyint_min=23 / scenecut=40 / intra_refresh=0 / rc_lookahead=60 / rc=crf / mbtree=0 / crf=17.6000 / qcomp=0.60 / qpmin=0 / qpmax=39 / qpstep=4 / vbv_maxrate=50000 / vbv_bufsize=62500 / crf_max=0.0 / nal_hrd=none / filler=0 / ip_ratio=1.40 / pb_ratio=1.30 / aq=3:0.80
Язык : English
Default : Да
Forced : Нет
Основные цвета : BT.709
Характеристики трансфера : BT.709
Коэффициенты матрицы : BT.709
Аудио #1
Идентификатор : 2
Формат : AC-3
Формат/Информация : Audio Coding 3
Расширение режима : CM (complete main)
Параметр Endianness формата : Big
Идентификатор кодека : A_AC3
Продолжительность : 2 ч. 23 м.
Вид битрейта : Постоянный
Битрейт : 384 Кбит/сек
Каналы : 6 каналов
Расположение каналов : Front: L C R, Side: L R, LFE
Частота : 48,0 КГц
Битовая глубина : 16 бит
Метод сжатия : С потерями
Размер потока : 395 Мбайт (4%)
Заголовок : Дубляж
Язык : Russian
Default : Да
Forced : Нет
Аудио #2
Идентификатор : 3
Формат : AC-3
Формат/Информация : Audio Coding 3
Расширение режима : CM (complete main)
Параметр Endianness формата : Big
Идентификатор кодека : A_AC3
Продолжительность : 2 ч. 23 м.
Вид битрейта : Постоянный
Битрейт : 640 Кбит/сек
Каналы : 6 каналов
Расположение каналов : Front: L C R, Side: L R, LFE
Частота : 48,0 КГц
Битовая глубина : 16 бит
Метод сжатия : С потерями
Размер потока : 659 Мбайт (6%)
Заголовок : MVO ( Карусель )
Язык : Russian
Default : Нет
Forced : Нет
Аудио #3
Идентификатор : 4
Формат : AC-3
Формат/Информация : Audio Coding 3
Расширение режима : CM (complete main)
Параметр Endianness формата : Big
Идентификатор кодека : A_AC3
Продолжительность : 2 ч. 23 м.
Вид битрейта : Постоянный
Битрейт : 192 Кбит/сек
Каналы : 2 канала
Расположение каналов : Front: L R
Частота : 48,0 КГц
Битовая глубина : 16 бит
Метод сжатия : С потерями
Размер потока : 198 Мбайт (2%)
Заголовок : MVO ( Телеканал Россия )
Язык : Russian
Default : Нет
Forced : Нет
Аудио #4
Идентификатор : 5
Формат : AC-3
Формат/Информация : Audio Coding 3
Расширение режима : CM (complete main)
Параметр Endianness формата : Big
Идентификатор кодека : A_AC3
Продолжительность : 2 ч. 23 м.
Вид битрейта : Постоянный
Битрейт : 192 Кбит/сек
Каналы : 2 канала
Расположение каналов : Front: L R
Частота : 48,0 КГц
Битовая глубина : 16 бит
Метод сжатия : С потерями
Размер потока : 198 Мбайт (2%)
Заголовок : MVO ( НТВ )
Язык : Russian
Default : Нет
Forced : Нет
Аудио #5
Идентификатор : 6
Формат : AC-3
Формат/Информация : Audio Coding 3
Расширение режима : CM (complete main)
Параметр Endianness формата : Big
Идентификатор кодека : A_AC3
Продолжительность : 2 ч. 23 м.
Вид битрейта : Постоянный
Битрейт : 192 Кбит/сек
Каналы : 2 канала
Расположение каналов : Front: L R
Частота : 48,0 КГц
Битовая глубина : 16 бит
Метод сжатия : С потерями
Размер потока : 198 Мбайт (2%)
Заголовок : DVO ( ТВ1000 )
Язык : Russian
Default : Нет
Forced : Нет
Аудио #6
Идентификатор : 7
Формат : AC-3
Формат/Информация : Audio Coding 3
Расширение режима : CM (complete main)
Параметр Endianness формата : Big
Идентификатор кодека : A_AC3
Продолжительность : 2 ч. 23 м.
Вид битрейта : Постоянный
Битрейт : 640 Кбит/сек
Каналы : 6 каналов
Расположение каналов : Front: L C R, Side: L R, LFE
Частота : 48,0 КГц
Битовая глубина : 16 бит
Метод сжатия : С потерями
Размер потока : 659 Мбайт (6%)
Заголовок : AVO ( Гаврилов )
Язык : Russian
Default : Нет
Forced : Нет
Аудио #7
Идентификатор : 8
Формат : AC-3
Формат/Информация : Audio Coding 3
Расширение режима : CM (complete main)
Параметр Endianness формата : Big
Идентификатор кодека : A_AC3
Продолжительность : 2 ч. 23 м.
Вид битрейта : Постоянный
Битрейт : 640 Кбит/сек
Каналы : 6 каналов
Расположение каналов : Front: L C R, Side: L R, LFE
Частота : 48,0 КГц
Битовая глубина : 16 бит
Метод сжатия : С потерями
Размер потока : 659 Мбайт (6%)
Заголовок : AVO ( Живов )
Язык : Russian
Default : Нет
Forced : Нет
Аудио #8
Идентификатор : 9
Формат : AC-3
Формат/Информация : Audio Coding 3
Расширение режима : CM (complete main)
Параметр Endianness формата : Big
Идентификатор кодека : A_AC3
Продолжительность : 2 ч. 23 м.
Вид битрейта : Постоянный
Битрейт : 192 Кбит/сек
Каналы : 2 канала
Расположение каналов : Front: L R
Частота : 48,0 КГц
Битовая глубина : 16 бит
Метод сжатия : С потерями
Размер потока : 198 Мбайт (2%)
Заголовок : AVO ( Визгунов )
Язык : Russian
Default : Нет
Forced : Нет
Аудио #9
Идентификатор : 10
Формат : AC-3
Формат/Информация : Audio Coding 3
Расширение режима : CM (complete main)
Параметр Endianness формата : Big
Идентификатор кодека : A_AC3
Продолжительность : 2 ч. 23 м.
Вид битрейта : Постоянный
Битрейт : 384 Кбит/сек
Каналы : 6 каналов
Расположение каналов : Front: L C R, Side: L R, LFE
Частота : 48,0 КГц
Битовая глубина : 16 бит
Метод сжатия : С потерями
Размер потока : 395 Мбайт (4%)
Заголовок : AVO ( Завгородний )
Язык : Russian
Default : Нет
Forced : Нет
Аудио #10
Идентификатор : 11
Формат : AC-3
Формат/Информация : Audio Coding 3
Расширение режима : CM (complete main)
Параметр Endianness формата : Big
Идентификатор кодека : A_AC3
Продолжительность : 2 ч. 23 м.
Вид битрейта : Постоянный
Битрейт : 192 Кбит/сек
Каналы : 2 канала
Расположение каналов : Front: L R
Частота : 48,0 КГц
Битовая глубина : 16 бит
Метод сжатия : С потерями
Размер потока : 198 Мбайт (2%)
Заголовок : AVO ( Латышев )
Язык : Russian
Default : Нет
Forced : Нет
Аудио #11
Идентификатор : 12
Формат : AC-3
Формат/Информация : Audio Coding 3
Расширение режима : CM (complete main)
Параметр Endianness формата : Big
Идентификатор кодека : A_AC3
Продолжительность : 2 ч. 23 м.
Вид битрейта : Постоянный
Битрейт : 640 Кбит/сек
Каналы : 6 каналов
Расположение каналов : Front: L C R, Side: L R, LFE
Частота : 48,0 КГц
Битовая глубина : 16 бит
Метод сжатия : С потерями
Размер потока : 659 Мбайт (6%)
Язык : English
Default : Нет
Forced : Нет
Текст #1
Идентификатор : 13
Формат : UTF-8
Идентификатор кодека : S_TEXT/UTF8
Идентификатор кодека/Информация : UTF-8 Plain Text
Заголовок : Forced
Язык : Russian
Default : Да
Forced : Да
Текст #2
Идентификатор : 14
Формат : UTF-8
Идентификатор кодека : S_TEXT/UTF8
Идентификатор кодека/Информация : UTF-8 Plain Text
Язык : Russian
Default : Нет
Forced : Нет
Текст #3
Идентификатор : 15
Формат : UTF-8
Идентификатор кодека : S_TEXT/UTF8
Идентификатор кодека/Информация : UTF-8 Plain Text
Язык : Russian
Default : Нет
Forced : Нет
Текст #4
Идентификатор : 16
Формат : UTF-8
Идентификатор кодека : S_TEXT/UTF8
Идентификатор кодека/Информация : UTF-8 Plain Text
Язык : English
Default : Нет
Forced : Нет
Меню
00:00:00.000 : en:00:00:00.000
00:03:25.205 : en:00:03:25.205
00:04:57.505 : en:00:04:57.505
00:09:07.212 : en:00:09:07.212
00:12:06.225 : en:00:12:06.225
00:14:58.855 : en:00:14:58.855
00:18:13.592 : en:00:18:13.592
00:20:52.585 : en:00:20:52.585
00:26:20.621 : en:00:26:20.621
00:30:09.016 : en:00:30:09.016
00:33:45.481 : en:00:33:45.481
00:36:10.960 : en:00:36:10.960
00:38:31.851 : en:00:38:31.851
00:41:35.784 : en:00:41:35.784
00:46:58.858 : en:00:46:58.858
00:49:17.121 : en:00:49:17.121
00:53:22.657 : en:00:53:22.657
00:56:24.338 : en:00:56:24.338
00:58:35.971 : en:00:58:35.971
01:03:40.315 : en:01:03:40.315
01:06:08.590 : en:01:06:08.590
01:10:25.011 : en:01:10:25.011
01:12:54.287 : en:01:12:54.287
01:14:30.675 : en:01:14:30.675
01:17:15.296 : en:01:17:15.296
01:19:17.377 : en:01:19:17.377
01:22:14.387 : en:01:22:14.387
01:25:59.988 : en:01:25:59.988
01:28:50.033 : en:01:28:50.033
01:33:36.152 : en:01:33:36.152
01:38:52.635 : en:01:38:52.635
01:43:14.354 : en:01:43:14.354
01:45:40.960 : en:01:45:40.960
01:48:28.377 : en:01:48:28.377
01:53:21.252 : en:01:53:21.252
01:55:40.350 : en:01:55:40.350
01:56:59.136 : en:01:56:59.136
02:01:48.134 : en:02:01:48.134
02:05:55.797 : en:02:05:55.797
02:09:59.792 : en:02:09:59.792
02:12:23.853 : en:02:12:23.853
02:13:40.095 : en:02:13:40.095
02:16:36.647 : en:02:16:36.647








   Похожие торренты   Торрент   Размер 
В этой теме нет новых непрочитанных сообщений. Адвокат дьявола / The Devil's Advocate (1997) BDRip 720p от Leonardo and Scarabey | Unrated Director's Cut

514 | 84

4.83 ГБ

В этой теме нет новых непрочитанных сообщений. Адвокат дьявола / The Devil's Advocate (1997) BDRip | UNRATED | A

12 | 1

1.46 ГБ

В этой теме нет новых непрочитанных сообщений. Адвокат дьявола / The Devil's Advocate (1997) BDRip-AVC от Leonardo and Scarabey | D

322 | 55

2.55 ГБ

В этой теме нет новых непрочитанных сообщений. Адвокат дьявола / The Devil's Advocate (Тейлор Хэкфорд) [1997, триллер, драма, детектив, BDRip] DUB

4 | 0

2.17 ГБ

В этой теме нет новых непрочитанных сообщений. Собственность дьявола / The Devil's Own (1997) BDRip 720p | D, P

111 | 4

3.89 ГБ

В этой теме нет новых непрочитанных сообщений. Собственность дьявола / The Devil's Own (1997) BDRip 720p от HDCLUB

35 | 24

8.97 ГБ

В этой теме нет новых непрочитанных сообщений. Собственность дьявола / The Devil's Own (1997) BDRip 720p от Leonardo and Scarabey | Лицензия

64 | 9

2.99 ГБ




Вы не можете начинать темы
Вы не можете отвечать на сообщения
Вы не можете редактировать свои сообщения
Вы не можете удалять свои сообщения
Вы не можете добавлять вложения

Перейти:  
 Вход
ppkBB3cker v.2 © 2008-2014 @ PPK
[ Time : 0.026s | 18 Queries | GZIP : Off ]

cron