img image001 image001 image001 image001 image001 image001 image001 image001 image001 image001 image001 image001 image001 image001 image001

Planets Sun Sun Sun
Статистика раздачи
Автор: Nickolas3434 | Размер: 2.39 ГБ | Добавлен: 15 дек 2017
Раздают: 16    Качают: 1
Скачать торрент
Скачать торрент
Описание торрента

СообщениеДобавлено: 15 дек 2017 

Информация о фильме
Наименование: Ублюдок 2
Оригинальное наименование: Creep 2
Произведено: США
Категория: ужасы, триллер
Режиссер постановщик: Патрик Брайс
В главных ролях: Каран Сони, Марк Дюпласс, Дезире Акхаван, Кайл Филд, Кавех Зейхеди, Джефф Мэн, Патрик Брайс
О фильме: Серийный убийца Аарон больше не чувствует былого вдохновения и воодушевления. В отчаянии он публикует объявление о поиске видеографа, на которое откликается девушка Сара. Сара ведёт на Youtube канал о встречах с незнакомцами, но её ролики не пользуются популярностью, им не хватает чего-то особенного. Эти двое просто обязаны встретиться и помочь друг другу.

Файл
Качество: WEB-DLRip 720p
Видео данные: MKV, 1280x720 (16:9), 23.976 fps, 4000 Кбит/с
Аудио данные: AC3, 2 ch, 384 Кбит/с
Перевод: Любительский многоголосый (GreenРай Studio)
Продолжительность: 01:20:49
Над релизом работали:
Состав дикторов: Илья Кочетков и Анастасия Гайдаржи, Татьяна Трусевич
Руководитель проекта и координатор: Евгений Овчаренко
Организатор и координатор: Никита Марков
Пиар менеджер студии: Игорь Обухов
Техническая поддержка: Александр Методий
General
Unique ID : 199214671311748956218950186903363411397 (0x95DF599F1BD29224A0212AF639DC5DC5)
Complete name : D:Крип 2Creep.2.2017.P.WEB-DL.720p.mkv
Format : Matroska
Format version : Version 4 / Version 2
File size : 2.39 GiB
Duration : 1 h 20 min
Overall bit rate mode : Constant
Overall bit rate : 4 237 kb/s
Encoded date : UTC 2017-12-12 17:05:58
Writing application : mkvmerge v8.3.0 ('Over the Horizon') 64bit
Writing library : libebml v1.3.1 + libmatroska v1.4.2
Video
ID : 1
Format : AVC
Format/Info : Advanced Video Codec
Format profile : Main@L3.2
Format settings, CABAC : Yes
Format settings, ReFrames : 3 frames
Codec ID : V_MPEG4/ISO/AVC
Duration : 1 h 20 min
Bit rate mode : Constant
Bit rate : 4 000 kb/s
Width : 1 280 pixels
Height : 720 pixels
Display aspect ratio : 16:9
Frame rate mode : Constant
Frame rate : 23.976 (23976/1000) FPS
Standard : NTSC
Color space : YUV
Chroma subsampling : 4:2:0
Bit depth : 8 bits
Scan type : Progressive
Bits/(Pixel*Frame) : 0.181
Stream size : 2.17 GiB (91%)
Language : English
Default : Yes
Forced : No
Color range : Limited
Audio
ID : 2
Format : AC-3
Format/Info : Audio Coding 3
Mode extension : CM (complete main)
Format settings, Endianness : Big
Codec ID : A_AC3
Duration : 1 h 20 min
Bit rate mode : Constant
Bit rate : 384 kb/s
Channel(s) : 2 channels
Channel positions : Front: L R
Sampling rate : 48.0 kHz
Frame rate : 31.250 FPS (1536 spf)
Compression mode : Lossy
Stream size : 221 MiB (9%)
Default : Yes
Forced : No

ВНИМАНИЕ! Присутствует реклама!

Релиз от:



   Похожие торренты   Торрент   Размер 
В этой теме нет новых непрочитанных сообщений. Ублюдок 2 / Creep 2 (2017) WEB-DLRip | L

33 | 4

1.37 ГБ

В этой теме нет новых непрочитанных сообщений. Ублюдок / Creep (2014) WEB-DLRip | А

71 | 7

1.46 ГБ

В этой теме нет новых непрочитанных сообщений. Ублюдок / Creep (2014) WEB-DLRip | A, L1

0 | 71

1.32 ГБ

В этой теме нет новых непрочитанных сообщений. Ублюдок / Creep (2014) WEB-DLRip От Cmert | А, L1

20 | 0

1.32 ГБ

В этой теме нет новых непрочитанных сообщений. Ублюдок / Creep (2014) WEB-DLRip от MegaPeer | А

90 | 3

742.29 МБ

В этой теме нет новых непрочитанных сообщений. Ублюдок / Creep (2014) HDRip | L1

445 | 22

1.05 ГБ

В этой теме нет новых непрочитанных сообщений. Ублюдок / Creep (2014) WEB-DL 720р | А, L1

67 | 21

2.67 ГБ




Вы не можете начинать темы
Вы не можете отвечать на сообщения
Вы не можете редактировать свои сообщения
Вы не можете удалять свои сообщения
Вы не можете добавлять вложения

Перейти:  
 Вход
ppkBB3cker v.2 © 2008-2014 @ PPK
[ Time : 0.032s | 18 Queries | GZIP : Off ]

cron