img image001 image001 image001 image001 image001 image001 image001 image001 image001 image001 image001 image001 image001 image001 image001 image001

Planets Sun Sun Sun
Статистика раздачи
Автор: Nickolas3434 | Размер: 2.96 ГБ | Добавлен: 15 дек 2017
Раздают: 24    Качают: 0
Скачать торрент
Скачать торрент
Описание торрента

СообщениеДобавлено: 15 дек 2017 

Информация о фильме
Наименование: Плохой день, чтобы свести счеты
Оригинальное наименование: Bad Day for the Cut
Произведено: Великобритания
Категория: триллер
Режиссер постановщик: Крис Боф
В главных ролях: Найджел О Нилл, Сьюзэн Линч, Юзеф Павловский, Стюарт Грэхэм, Дэвид Пирс, Анна Прухняк, Стелла МакКаскер, Йен МакЭлхинни, Брайан Миллиган, Шаши Рэми
О фильме: Когда убивают мать простого ирландского фермера, он отправляется мстить. На своём пути герою предстоит встретить преступную организацию и неприятную правду о прошлом.

Файл
Качество: WEB-DLRip 720p
Видео данные: MKV AVI (XVID), 1280x536 (2:40:1), 24.000 fps, 4000 Кбит/с
Аудио данные: AC3, 2 ch,384 Кбит/с
Перевод: Любительский многоголосый (GreenРай Studio)
Продолжительность: 01:39:52
Над релизом работали:
Состав дикторов: Илья Кочетков и Анастасия Гайдаржи, Татьяна Трусевич
Руководитель проекта и координатор: Евгений Овчаренко
Организатор и координатор: Никита Марков
Пиар менеджер студии: Игорь Обухов
Техническая поддержка: Александр Методий
General
Unique ID : 180719248415625115827240616434914744513 (0x87F542DE560F8F36B24153C65522D8C1)
Complete name : D:Бэд дэйBad.Day.for.the.Cut.2017.P.WEB-DL.720p.mkv
Format : Matroska
Format version : Version 4 / Version 2
File size : 2.96 GiB
Duration : 1 h 39 min
Overall bit rate mode : Constant
Overall bit rate : 4 255 kb/s
Encoded date : UTC 2017-12-13 09:05:15
Writing application : mkvmerge v8.3.0 ('Over the Horizon') 64bit
Writing library : libebml v1.3.1 + libmatroska v1.4.2
Video
ID : 1
Format : AVC
Format/Info : Advanced Video Codec
Format profile : Main@L3.1
Format settings, CABAC : Yes
Format settings, ReFrames : 3 frames
Format settings, GOP : M=4, N=15
Codec ID : V_MPEG4/ISO/AVC
Duration : 1 h 39 min
Bit rate mode : Constant
Bit rate : 4 000 kb/s
Width : 1 280 pixels
Height : 536 pixels
Display aspect ratio : 2.40:1
Frame rate mode : Constant
Frame rate : 24.000 FPS
Standard : NTSC
Color space : YUV
Chroma subsampling : 4:2:0
Bit depth : 8 bits
Scan type : Progressive
Bits/(Pixel*Frame) : 0.243
Stream size : 2.69 GiB (91%)
Language : English
Default : Yes
Forced : No
Color range : Limited
Audio
ID : 2
Format : AC-3
Format/Info : Audio Coding 3
Mode extension : CM (complete main)
Format settings, Endianness : Big
Codec ID : A_AC3
Duration : 1 h 39 min
Bit rate mode : Constant
Bit rate : 384 kb/s
Channel(s) : 2 channels
Channel positions : Front: L R
Sampling rate : 48.0 kHz
Frame rate : 31.250 FPS (1536 spf)
Compression mode : Lossy
Stream size : 274 MiB (9%)
Default : Yes
Forced : No

ВНИМАНИЕ! Присутствует реклама!

Релиз от:



   Похожие торренты   Торрент   Размер 
В этой теме нет новых непрочитанных сообщений. Плохой день, чтобы свести счёты / Bad Day for the Cut (2017) WEB-DLRip | L

20 | 0

1.36 ГБ

В этой теме нет новых непрочитанных сообщений. Плохой день, чтобы свести счеты / Bad Day for the Cut (2017) WEB-DLRip 1080p | L

52 | 12

3.68 ГБ

В этой теме нет новых непрочитанных сообщений. Плохой день, чтобы свести счёты / Bad Day for the Cut (2017) WEBRip | L

46 | 2

1.36 ГБ

В этой теме нет новых непрочитанных сообщений. Плохой Фрэнк / Bad Frank (2017) WEB-DLRip | L

242 | 25

1.37 ГБ

В этой теме нет новых непрочитанных сообщений. Плохой хороший полицейский 2 / Bon Cop Bad Cop 2 (2017) BDRip 720p | L

35 | 5

4.01 ГБ

В этой теме нет новых непрочитанных сообщений. Плохой хороший коп [01 из 16] (2016) WEB-DLRip от Files-x

0 | 0

1.86 ГБ

В этой теме нет новых непрочитанных сообщений. Плохой хороший коп [01-16 из 16] (2016) WEB-DLRip от Generalfilm | КПК

25 | 0

3.25 ГБ




Вы не можете начинать темы
Вы не можете отвечать на сообщения
Вы не можете редактировать свои сообщения
Вы не можете удалять свои сообщения
Вы не можете добавлять вложения

Перейти:  
 Вход
ppkBB3cker v.2 © 2008-2014 @ PPK
[ Time : 0.046s | 17 Queries | GZIP : Off ]

cron