img image001 image001 image001 image001 image001 image001 image001 image001 image001 image001 image001 image001 image001 image001 image001 image001

Planets Sun Sun Sun
Статистика раздачи
Автор: Nickolas3434 | Размер: 636.83 МБ | Добавлен: 15 дек 2017
Раздают: 6    Качают: 0
Скачать торрент
Скачать торрент
Описание торрента

СообщениеДобавлено: 15 дек 2017 

Информация о фильме
Название: Игра друзей
Оригинальное название: Tomodachi gemu
Год выхода: 2017
Жанр: драма
Режиссер: Нагаэ Дзиро
В ролях: Кубота Юки, Окура Симон, Урагами Сэйсю, Утида Рио, Ёсидзава Рё, Ямада Юки
О фильме:
Катагири Юити ценит дружбу больше, чем деньги; но и знает, каково это - быть на мели. Пообещав четырём лучшим друзьям, что поедет вместе с ними в школьную поездку, он усердно работает, чтобы накопить необходимую для этого сумму. Однако деньги кто-то украл! Подозрение падает на двух из его друзей: Савараги Сихо и Сибэ Макото. Вдруг всех пятерых похищают, и выясняется, что один из них принял участие в "Игре друзей", чтобы покрыть образовавшийся долг...

Страна: Япония
Продолжительность: 01:38:16
Перевод: Любительский, двухголосый, закадровый (РГ "XDUB DORAMA", перевод на русский: Akira9, закадровый текст читали: Koldun02 & Izanami, тайминг и работа со звуком: Izanami)
Файл
Кодек: V_MPEG4/ISO/AVC
Качество: HDTVRip 720p
Видео: 1280x536, 23.976 FPS, 568 kb/s
Звук: mp3, 48.0 kHz, 2ch, 320 kb/s
Субтитры: китайские (хардсаб)
General
Unique ID : 173788392941330166658931686586056162072 (0x82BE6D4F8FC7C21AA398DD9270A7BB18)
Complete name : Tomodachi.gemu.2017.L2.720p.HDTVRip.mkv
Format : Matroska
Format version : Version 2
File size : 637 MiB
Duration : 1 h 38 min
Overall bit rate : 906 kb/s
Encoded date : UTC 2017-12-11 20:51:59
Writing application : mkvmerge v4.2.0 ('No Talking') сборка от Jul 28 2010 18:38:23
Writing library : libebml v1.0.0 + libmatroska v1.0.0
Attachments : 201042_Audiowide-Regular_0.ttf / arialbd_4.ttf / ARLRDBD_2.TTF / CROSB_.TTF / CTMercuriusStd-Medium.ttf / KozGoPr6N-Medium.otf / LT_0.ttf / luxisb_0.ttf / luxisbi_0.ttf / nyala_0.ttf / tradbdo_2.ttf
Video
ID : 1
Format : AVC
Format/Info : Advanced Video Codec
Format profile : High 10@L4.1
Format settings, CABAC : Yes
Format settings, RefFrames : 6 frames
Muxing mode : Header stripping
Codec ID : V_MPEG4/ISO/AVC
Duration : 1 h 38 min
Bit rate : 568 kb/s
Width : 1 280 pixels
Height : 536 pixels
Display aspect ratio : 2.40:1
Frame rate mode : Constant
Frame rate : 23.976 (24000/1001) FPS
Color space : YUV
Chroma subsampling : 4:2:0
Bit depth : 10 bits
Scan type : Progressive
Bits/(Pixel*Frame) : 0.035
Stream size : 399 MiB (63%)
Writing library : x264 core 148 r2744 b97ae06
Encoding settings : cabac=1 / ref=6 / deblock=1:1:1 / analyse=0x3:0x113 / me=hex / subme=7 / psy=1 / psy_rd=0.40:0.00 / mixed_ref=1 / me_range=16 / chroma_me=1 / trellis=1 / 8x8dct=1 / cqm=0 / deadzone=21,11 / fast_pskip=1 / chroma_qp_offset=-2 / threads=17 / lookahead_threads=2 / sliced_threads=0 / nr=0 / decimate=1 / interlaced=0 / bluray_compat=0 / constrained_intra=0 / bframes=5 / b_pyramid=2 / b_adapt=1 / b_bias=0 / direct=1 / weightb=1 / open_gop=0 / weightp=2 / keyint=240 / keyint_min=23 / scenecut=40 / intra_refresh=0 / rc_lookahead=40 / rc=crf / mbtree=1 / crf=24.0 / qcomp=0.60 / qpmin=0 / qpmax=81 / qpstep=4 / vbv_maxrate=62500 / vbv_bufsize=78125 / crf_max=0.0 / nal_hrd=none / filler=0 / ip_ratio=1.40 / aq=1:0.60
Default : Yes
Forced : No
Audio
ID : 2
Format : MPEG Audio
Format version : Version 1
Format profile : Layer 3
Mode : Joint stereo
Muxing mode : Header stripping
Codec ID : A_MPEG/L3
Codec ID/Hint : MP3
Duration : 1 h 38 min
Bit rate mode : Constant
Bit rate : 320 kb/s
Channel(s) : 2 channels
Sampling rate : 48.0 kHz
Compression mode : Lossy
Stream size : 225 MiB (35%)
Default : Yes
Forced : No

Релиз от:



   Похожие торренты   Торрент   Размер 
В этой теме нет новых непрочитанных сообщений. Игра друзей / Tomodachi Game [01-01 из 04] (2017) WEBRip 720p | L2

3 | 0

554.12 МБ

В этой теме нет новых непрочитанных сообщений. У меня мало друзей / У меня друзей не много / Boku wa tomodachi ga sukunai / I Don't Have Many Friends (2014) DVDRip | L

29 | 8

2.05 ГБ

В этой теме нет новых непрочитанных сообщений. Игра Джокера / Joka Gemu (2015) BDRip 720p | L

132 | 13

3.94 ГБ

В этой теме нет новых непрочитанных сообщений. Игра Джокера / Joka Gemu (2015) BDRip 1080p | Sub

37 | 63

7.69 ГБ

В этой теме нет новых непрочитанных сообщений. Хоккей. Чемпионат мира 2017. Группа А. Тур 7. Россия - США [Матч Игра HD] [16.05] (2017) HDTVRip 720p | 50 fps

0 | 0

3.4 ГБ

В этой теме нет новых непрочитанных сообщений. Хоккей. Чемпионат мира 2017. Группа А. 1 тур. США - Германия [Матч! Игра HD] [05.05] (2017) HDTVRip 720p | 50 fps

0 | 0

3.42 ГБ

В этой теме нет новых непрочитанных сообщений. Хоккей. Чемпионат мира 2017. Группа А. 3 тур. Германия - Россия [Матч! Игра HD] [08.05] (2017) HDTVRip 720p | 50 fps

2 | 0

3.53 ГБ




Вы не можете начинать темы
Вы не можете отвечать на сообщения
Вы не можете редактировать свои сообщения
Вы не можете удалять свои сообщения
Вы не можете добавлять вложения

Перейти:  
 Вход
ppkBB3cker v.2 © 2008-2014 @ PPK
[ Time : 0.030s | 18 Queries | GZIP : Off ]

cron