img image001 image001 image001 image001 image001 image001 image001 image001 image001 image001 image001 image001 image001 image001 image001

Planets Sun Sun Sun
Статистика раздачи
Автор: Nickolas3434 | Размер: 3.72 ГБ | Добавлен: 15 дек 2017
Раздают: 0    Качают: 0
Скачать торрент
Скачать торрент
Описание торрента

СообщениеДобавлено: 15 дек 2017 

Информация о фильме
Название: Снеговик
Оригинальное название: The Snowman
Год выхода: 2017
Жанр: Детектив, Драма, Криминал, Триллер, Ужасы
Режиссер: Томас Альфредсон
В ролях: Майкл Фассбендер, Ребекка Фергюсон, Шарлотта Генсбур, Йонас Карлссон, Michael Yates, Ронан Вайберт, Дж.К. Симмонс, Вэл Килмер, Давид Денсик, Тоби Джонс...
О фильме:
В течение многих лет в день, когда выпадает первый снег, бесследно исчезают замужние женщины. Сложить все части загадочного пазла под силу только знаменитому детективу. Он потерял покой и сон, ведь время следующего снегопада неумолимо приближается.

Страна: США
Продолжительность: 01:58:07
Перевод: Любительский (многоголосый, закадровый) | MUZOBOZ
Файл
Кодек: x.264
Качество: WEBRip 720p
Видео: AVC, 1280x692 (1.85:1), 23.976 fps, 4 120 Kbps
Звук: AC-3, 48.0 KHz, 2 ch, 384 Kbps, CBR
Субтитры: Корейские (хардсаб)
Общее
Уникальный идентификатор : 177749547791994525810670328094777959678 (0x85B95152C7F5B31E97F58FC7AEBC64FE)
Полное имя : The.Snowman.2017.L.WEBRip.72Op.mkv
Формат : Matroska
Версия формата : Version 4 / Version 2
Размер файла : 3,72 Гбайт
Продолжительность : 1 ч. 58 м.
Режим общего битрейта : Переменный
Общий поток : 4506 Кбит/сек
Дата кодирования : UTC 2017-12-13 19:08:47
Программа кодирования : mkvmerge v8.3.0 ('Over the Horizon') 64bit
Библиотека кодирования : libebml v1.3.1 + libmatroska v1.4.2
Видео
Идентификатор : 1
Формат : AVC
Формат/Информация : Advanced Video Codec
Профиль формата : High@L4.1
Параметр CABAC формата : Да
Параметр ReFrames формата : 9 кадров
Идентификатор кодека : V_MPEG4/ISO/AVC
Продолжительность : 1 ч. 58 м.
Вид битрейта : Переменный
Битрейт : 4120 Кбит/сек
Максимальный битрейт : 4600 Кбит/сек
Ширина : 1280 пикселей
Высота : 692 пикселя
Соотношение сторон : 1,85:1
Режим частоты кадров : Постоянный
Частота кадров : 23,976 (24000/1001) кадра/сек
Стандарт вещания : Component
Цветовое пространство : YUV
Субдискретизация насыщенности : 4:2:0
Битовая глубина : 8 бит
Тип развёртки : Прогрессивная
Бит/(Пиксели*Кадры) : 0.194
Размер потока : 3,40 Гбайт (91%)
Default : Да
Forced : Нет
Цветовой диапазон : Limited
Основные цвета : BT.709
Характеристики трансфера : BT.709
Коэффициенты матрицы : BT.709
Аудио
Идентификатор : 2
Формат : AC-3
Формат/Информация : Audio Coding 3
Параметр Endianness формата : Big
Идентификатор кодека : A_AC3
Продолжительность : 1 ч. 58 м.
Вид битрейта : Постоянный
Битрейт : 384 Кбит/сек
Каналы : 2 канала
Расположение каналов : Front: L R
Частота : 48,0 КГц
Частота кадров : 31,250 кадров/сек (1536 spf)
Битовая глубина : 16 бит
Метод сжатия : С потерями
Размер потока : 324 Мбайт (9%)
Язык : Russian
Default : Да
Forced : Нет


Реклама присутствует !



   Похожие торренты   Торрент   Размер 
В этой теме нет новых непрочитанных сообщений. Снеговик / The Snowman (2017) WEBRip | L

0 | 0

2.02 ГБ

В этой теме нет новых непрочитанных сообщений. Снеговик / The Snowman (2017) WEBRip | L

126 | 1

1.37 ГБ

В этой теме нет новых непрочитанных сообщений. Снеговик / The Snowman (2017) WEBRip 1080p | L

0 | 0

4.81 ГБ

В этой теме нет новых непрочитанных сообщений. Снеговик / The Snowman (2017) WEB-DL 720p | iTunes

508 | 10

4.21 ГБ

В этой теме нет новых непрочитанных сообщений. Снеговик / The Snowman (2017) BDRip 720p | iTunes

0 | 0

5.79 ГБ

В этой теме нет новых непрочитанных сообщений. Снеговик / The Snowman (2017) BDRip 720p от HELLYWOOD | iTunes

311 | 27

4.32 ГБ

В этой теме нет новых непрочитанных сообщений. Снеговик / The Snowman (2017) BDRip 720p от ExKinoRay | iTunes

426 | 58

6.15 ГБ




Вы не можете начинать темы
Вы не можете отвечать на сообщения
Вы не можете редактировать свои сообщения
Вы не можете удалять свои сообщения
Вы не можете добавлять вложения

Перейти:  
Для Мосгорсуда, Роскомнадзора и рекламодателей: mosgorsud-torrent[собачка]yandex.ru
 Вход
ppkBB3cker v.2 © 2008-2014 @ PPK
[ Time : 0.063s | 17 Queries | GZIP : Off ]

cron