img image001 image001 image001 image001 image001 image001 image001 image001 image001 image001 image001 image001 image001 image001 image001 image001

Planets Sun Sun Sun
Статистика раздачи
Автор: Nickolas3434 | Размер: 1.46 ГБ | Добавлен: 15 дек 2017
Раздают: 53    Качают: 3
Скачать торрент
Скачать торрент
Описание торрента

СообщениеДобавлено: 15 дек 2017 

Информация о фильме
Название: Мумия
Оригинальное название: The Mummy
Год выпуска: 2017
Страна: США / Universal Pictures...
Жанр: фэнтези, боевик, триллер, приключения
Продолжительность: 01:50:05
Перевод: Профессиональный (дублированный)
Субтитры: русские (на древнеегипетскую речь / стилизованные)
Режиссер: Алекс Куртцман / Alex Kurtzman
В ролях: Том Круз, Рассел Кроу, Аннабелль Уоллис, София Бутелла, Джейк Джонсон, Кортни Б. Вэнс, Марван Кензари, Саймон Атертон, Стивен Томпсон, Джеймс Арама.
Описание: События происходят в наши дни, герой Тома Круза по имени Ник Мортон – боец спецподразделения на Ближнем Востоке, который, преследуя боевиков, попадает в странный бункер, где обнаруживает мумию ассирийской царицы. Вместе с ученой-антропологом по имени Дженни Хэлси (Аннабелль Уоллис) и группой солдат ее тело самолетом перевозят в Лондон. В процессе транспортировки случается инцидент, и самолет терпит крушение, после которого выжить удается только Нику и...мумии. Как гласит история, в свое время судьба несправедливо обошлась с ней и теперь, спустя тысячи лет, богиня просыпается ото сна. Пролежав все это время под тоннами песка, она наконец-то обретает свободу, и теперь ей ничто не помешает обрушить всю свою ярость на человечество.
Доп. информация: Локализованный видеоряд. Запись с онлайн-кинотеатра. Различия BDRip и WEB-DLRip - разное наполнение кадра
Качество видео: WEBRip (исходник: BlueBird / WEBRip / 1080p)
Формат видео: AVI | Sample
Видео: 720x304 (2.37:1), 23.976, XviD build 73 ~1508 kbps avg, 0.29 bit/pixel
Аудио: 48 kHz, AC3 Dolby Digital, 3/2 (L,C,R,l,r) + LFE ch, ~384.00 kbps avg | RUS
Формат : AVI
Формат/Информация : Audio Video Interleave
Размер файла : 1,46 Гбайт
Продолжительность : 1 ч. 50 м.
Общий поток : 1901 Кбит/сек
Название фильма : Мумия / The Mummy (2017) Локализованный видеоряд
Программа кодирования : VirtualDubMod 1.5.10.2 (build 2540/release)
Библиотека кодирования : VirtualDubMod build 2540/release
Примечание : WEB-DLRip by Seven
Видео
Идентификатор : 0
Формат : MPEG-4 Visual
Профиль формата : Advanced Simple@L5
Параметр BVOP формата : 1
Параметр QPel формата : Нет
Параметр GMC формата : Без точки перехода
Параметр матрицы формата : Выборочная
Идентификатор кодека : XVID
Идентификатор кодека/Подсказка : XviD
Продолжительность : 1 ч. 50 м.
Битрейт : 1508 Кбит/сек
Ширина : 720 пикселей
Высота : 304 пикселя
Соотношение сторон : 2,35:1
Частота кадров : 23,976 (24000/1001) кадра/сек
Цветовое пространство : YUV
Субдискретизация насыщенности : 4:2:0
Битовая глубина : 8 бит
Тип развёртки : Прогрессивная
Метод сжатия : С потерями
Бит/(Пиксели*Кадры) : 0.287
Размер потока : 1,16 Гбайт (79%)
Библиотека кодирования : XviD 73
Аудио
Идентификатор : 1
Формат : AC-3
Формат/Информация : Audio Coding 3
Параметр Endianness формата : Big
Идентификатор кодека : 2000
Продолжительность : 1 ч. 50 м.
Вид битрейта : Постоянный
Битрейт : 384 Кбит/сек
Каналы : 6 каналов
Расположение каналов : Front: L C R, Side: L R, LFE
Частота : 48,0 КГц
Частота кадров : 31,250 кадров/сек (1536 SPF)
Битовая глубина : 16 бит
Метод сжатия : С потерями
Размер потока : 302 Мбайт (20%)
Выравнивание : Разделение по промежуткам
Продолжительность промежутка : 42 мс. (1,00 видеокадр)
Время предзагрузки промежутка : 500 мс.




   Похожие торренты   Торрент   Размер 
В этой теме нет новых непрочитанных сообщений. Мумия / The Mummy (2017) WEBRip | L

3424 | 32

1.46 ГБ

В этой теме нет новых непрочитанных сообщений. Мумия / The Mummy (2017) WEBRip | Line

890 | 29

1.46 ГБ

В этой теме нет новых непрочитанных сообщений. Мумия / The Mummy (2017) WEBRip 1080р | L

394 | 4

4.08 ГБ

В этой теме нет новых непрочитанных сообщений. Мумия / The Mummy (2017) WEBRip | Звук c TS

1150 | 35

1.46 ГБ

В этой теме нет новых непрочитанных сообщений. Мумия / The Mummy (2017) WEBRip 720p | Трейлер

34 | 0

78.88 МБ

В этой теме нет новых непрочитанных сообщений. Мумия / The Mummy (2017) WEBRip-HEVC | Line

98 | 14

862.79 МБ

В этой теме нет новых непрочитанных сообщений. Мумия / The Mummy (2017) WEBRip 1080р | Звук с TS

2507 | 119

3.98 ГБ




Вы не можете начинать темы
Вы не можете отвечать на сообщения
Вы не можете редактировать свои сообщения
Вы не можете удалять свои сообщения
Вы не можете добавлять вложения

Перейти:  
 Вход
ppkBB3cker v.2 © 2008-2014 @ PPK
[ Time : 0.090s | 19 Queries | GZIP : Off ]

cron