img image001 image001 image001 image001 image001 image001 image001 image001 image001 image001 image001 image001 image001 image001 image001

Planets Sun Sun Sun
Статистика раздачи
Автор: Nickolas3434 | Размер: 746.52 МБ | Добавлен: 15 дек 2017
Раздают: 85    Качают: 6
Скачать торрент
Скачать торрент
Описание торрента

СообщениеДобавлено: 15 дек 2017 

Информация о фильме
Название: Привидение / Призрак
Оригинальное название: Ghost
Год выхода: 1990
Жанр: фэнтези, триллер, драма, мелодрама, детектив
Режиссер: Джерри Цукер
В ролях: Патрик Суэйзи, Деми Мур, Вупи Голдберг, Тони Голдвин, Стэнли Лоуренс, Кристофер Дж. Кин, Сьюзэн Бреслау, Мартина Дэйнан
О фильме :
Сэм и Молли любят друг друга, у них всё складывается как нельзя лучше - новый дом, успехи Сэма на работе, нежные чувства друг к другу... Они возвращаются домой после вечера в театре, и в безлюдном переулке на них нападает грабитель. Защищаясь, Сэм погибает. Теперь у него нет тела, но его дух по какой-то неведомой причине не покидает этот мир. Сэм узнаёт, что его смерть не была случайной, и над Молли также нависла смертельная опасность. Но для Молли он теперь невидим и не слышим, как же предупредить её об этом? Счастливый случай приводит Сэма-призрака в дом мошенницы-медиума Оды Мэй Браун, которая проводит фальшивые спиритические сеансы. Но происходит чудо, она слышит глас духа Сэма. Вот он - единственный способ связаться с Молли и передать ей важное сообщение.

Страна: США
Производство: Paramount Pictures
Продолжительность: 02:06:39
Перевод: Профессиональный (многоголосый, закадровый) Blu-ray CEE
Файл
Формат: MKV
Качество: HDRip-AVC
Видео: MPEG-4 AVC, 752x424, ~ 746 Кбит/с
Аудио: AAC-LC, 2 ch, ~ 76 Кбит/с
Субтитры: Русские, английские
Общее
Уникальный идентификатор : 189131724997135127427124861133556045630 (0x8E4971FC989502D59421E94A2C08573E)
Полное имя : D:MOVIESGhost.1990.ExKinoRay.mkv
Формат : Matroska
Версия формата : Version 4 / Version 2
Размер файла : 747 Мбайт
Продолжительность : 2 ч. 6 м.
Общий поток : 824 Кбит/сек
Дата кодирования : UTC 2017-12-14 06:12:15
Программа кодирования : mkvmerge v15.0.0 ('Duel with the Devil') 64-bit
Библиотека кодирования : libebml v1.3.5 + libmatroska v1.4.5
Видео
Идентификатор : 1
Формат : AVC
Формат/Информация : Advanced Video Codec
Профиль формата : High@L4.1
Параметр CABAC формата : Да
Параметр RefFrames формата : 10 кадров
Идентификатор кодека : V_MPEG4/ISO/AVC
Продолжительность : 2 ч. 6 м.
Битрейт : 746 Кбит/сек
Ширина : 752 пикселя
Высота : 424 пикселя
Соотношение сторон : 16:9
Режим частоты кадров : Постоянный
Частота кадров : 23,976 (24000/1001) кадра/сек
Цветовое пространство : YUV
Субдискретизация насыщенности : 4:2:0
Битовая глубина : 8 бит
Тип развёртки : Прогрессивная
Бит/(Пиксели*Кадры) : 0.098
Размер потока : 676 Мбайт (91%)
Библиотека кодирования : x264 core 152 r2851kMod ba24899
Настройки программы : cabac=1 / ref=10 / deblock=1:-3:-2 / analyse=0x3:0x133 / me=umh / subme=11 / psy=1 / fade_compensate=0.00 / psy_rd=1.00:0.15 / mixed_ref=1 / me_range=32 / chroma_me=1 / trellis=2 / 8x8dct=1 / cqm=0 / deadzone=21,11 / fast_pskip=0 / chroma_qp_offset=-3 / threads=6 / lookahead_threads=1 / sliced_threads=0 / nr=0 / decimate=0 / interlaced=0 / bluray_compat=0 / constrained_intra=0 / bframes=10 / b_pyramid=2 / b_adapt=2 / b_bias=0 / direct=3 / weightb=1 / open_gop=0 / weightp=2 / keyint=240 / keyint_min=23 / scenecut=40 / intra_refresh=0 / rc_lookahead=40 / rc=2pass / mbtree=1 / bitrate=746 / ratetol=1.0 / qcomp=0.60 / qpmin=0 / qpmax=69 / qpstep=4 / cplxblur=20.0 / qblur=0.5 / vbv_maxrate=50000 / vbv_bufsize=62500 / nal_hrd=none / filler=0 / ip_ratio=1.40 / aq=3:1.00
Default : Да
Forced : Нет
Аудио
Идентификатор : 2
Формат : AAC
Формат/Информация : Advanced Audio Codec
Профиль формата : LC
Идентификатор кодека : A_AAC
Продолжительность : 2 ч. 5 м.
Битрейт : 76,0 Кбит/сек
Каналы : 2 канала
Расположение каналов : Front: L R
Частота : 48,0 КГц
Частота кадров : 46,875 кадров/сек (1024 SPF)
Метод сжатия : С потерями
Задержка видео : 9 мс.
Размер потока : 68,4 Мбайт (9%)
Язык : Russian
Default : Да
Forced : Нет
Текст #1
Идентификатор : 3
Формат : UTF-8
Идентификатор кодека : S_TEXT/UTF8
Идентификатор кодека/Информация : UTF-8 Plain Text
Продолжительность : 2 ч. 1 м.
Битрейт : 92 бит/сек
ElementCount : 1355
Размер потока : 81,8 Кбайт (0%)
Заголовок : BD CEE
Язык : Russian
Default : Нет
Forced : Нет
Текст #2
Идентификатор : 4
Формат : UTF-8
Идентификатор кодека : S_TEXT/UTF8
Идентификатор кодека/Информация : UTF-8 Plain Text
Продолжительность : 2 ч. 1 м.
Битрейт : 79 бит/сек
ElementCount : 1728
Размер потока : 71,0 Кбайт (0%)
Заголовок : Myhalyov
Язык : Russian
Default : Нет
Forced : Нет
Текст #3
Идентификатор : 5
Формат : UTF-8
Идентификатор кодека : S_TEXT/UTF8
Идентификатор кодека/Информация : UTF-8 Plain Text
Продолжительность : 1 ч. 59 м.
Битрейт : 57 бит/сек
ElementCount : 1420
Размер потока : 50,1 Кбайт (0%)
Язык : English
Default : Нет
Forced : Нет
Текст #4
Идентификатор : 6
Формат : UTF-8
Идентификатор кодека : S_TEXT/UTF8
Идентификатор кодека/Информация : UTF-8 Plain Text
Продолжительность : 1 ч. 59 м.
Битрейт : 55 бит/сек
ElementCount : 1420
Размер потока : 48,1 Кбайт (0%)
Язык : English
Default : Нет
Forced : Нет
Меню
00:00:00.000 : en:Opening Credits
00:11:08.251 : en:Unchained Melody
00:17:18.037 : en:Afterlife
00:32:06.591 : en:Willie Lopez
00:37:42.760 : en:Oda Mae Brown
00:47:04.530 : en:Molly in Danger
01:12:23.756 : en:The Art of Being a Ghost
01:18:02.511 : en:A Gathering of Ghosts
01:22:16.807 : en:Rita Miller
01:34:30.957 : en:Murderer!!
01:38:54.095 : en:Spooked
01:44:26.677 : en:Convincing Molly
01:49:09.501 : en:Oda Mae Brown Possessed
01:52:13.936 : en:Carl
01:57:40.387 : en:Believe...
02:02:15.328 : en:End Credits


Релиз от:



   Похожие торренты   Торрент   Размер 
В этой теме нет новых непрочитанных сообщений. Привидение / Призрак / Ghost (1990) HDRip от Scarabey

33 | 5

743.98 МБ

В этой теме нет новых непрочитанных сообщений. Привидение / Призрак / Ghost (1990) HDRip от Scarabey

37 | 11

1.45 ГБ

В этой теме нет новых непрочитанных сообщений. Привидение / Призрак / Ghost (1990) HDRip от Scarabey

576 | 19

1.45 ГБ

В этой теме нет новых непрочитанных сообщений. Привидение / Призрак / Ghost (1990) HDRip от Scarabey

44 | 5

2.18 ГБ

В этой теме нет новых непрочитанных сообщений. Привидение / Ghost (1990) BDRip-AVC

94 | 8

2.2 ГБ

В этой теме нет новых непрочитанных сообщений. Привидение / Ghost (1990) DVDRip от NovaLan

15 | 7

3.22 ГБ

В этой теме нет новых непрочитанных сообщений. Привидение / Призрак / Ghost (1990) от FREEISLAND

55 | 11

7.95 ГБ




Вы не можете начинать темы
Вы не можете отвечать на сообщения
Вы не можете редактировать свои сообщения
Вы не можете удалять свои сообщения
Вы не можете добавлять вложения

Перейти:  
Для Мосгорсуда, Роскомнадзора и рекламодателей: mosgorsud-torrent[собачка]yandex.ru
 Вход
ppkBB3cker v.2 © 2008-2014 @ PPK
[ Time : 0.039s | 18 Queries | GZIP : Off ]

cron