img image001 image001 image001 image001 image001 image001 image001 image001 image001 image001 image001 image001 image001 image001 image001

Planets Sun Sun Sun
Статистика раздачи
Автор: Nickolas3434 | Размер: 41.24 ГБ | Добавлен: 15 дек 2017
Раздают: 8    Качают: 3
Скачать торрент
Скачать торрент
Описание торрента

СообщениеДобавлено: 15 дек 2017 

Информация о фильме
Название: Бегущий в лабиринте
Оригинальное название: The Maze Runner
Год выхода: 2014
Жанр: Фантастика, боевик, триллер, детектив, экранизация, постапокалипсис
Режиссер: Уэс Болл
В ролях: Дилан О`Брайэн, Ки Хонг Ли, Кая Скоделарио, Уилл Поултер, Томас Броди Сэнгстер, Патришия Кларксон, Амл Амин, Блейк Купер, Крис Шеффилд, Карл Грин
О фильме:
Главный герой — подросток Томас, который просыпается в лифте, но ничего не помнит, кроме своего имени. Он оказывается среди 60 подростков, научившихся выживать в замкнутом пространстве. Раз в 30 дней прибывает новый мальчик. Группа ребят проживает в «Приюте» уже два года. Они кормятся тем, что удается вырастить на земле, и пытаются найти выход из лабиринта, окружающего их место жительства. Но однажды появляется девочка в состоянии комы…

Страна: США
Студия: 20th Century Fox, Gotham Group, Temple Hill Entertainment
Продолжительность: 01:53:27
Перевод(ы):
#1: Дублированный | Лицензия
#2: Авторский | Есарев
Файл
Качество: BDRemux 2160p
Видео: MPEG-H HEVC HDR Video, 3840x2160, 45.1 Mbit/s, 23.976 fps
Звук:
Аудио #01: 48 kHz, AC3, 5.1, 640 Kbps | Дублированный | RUS |
Аудио #02: 48 kHz, AC3, 5.1, 640 Kbps | Авторский | RUS |
Аудио #03: 48 kHz, DTS-HD MA, 7.1, 5628 Kbps | Оригинал | ENG |
Субтитры: Русские (full), английские

General
Unique ID : 220028900269856672710858032195509526471 (0xA5880657110D142CA156425A1E899FC7)
Complete name : G:VideoSSDThe.Maze.Runner.2014.BDREMUX.2160p.4K.UltraHD.HEVC.HDR.ExKinoRay.mkv
Format : Matroska
Format version : Version 4 / Version 2
File size : 41.2 GiB
Duration : 1 h 53 min
Overall bit rate : 51.9 Mb/s
Movie name : The Maze Runner 2014 from ExKinoRay
Encoded date : UTC 2017-12-14 08:52:56
Writing application : mkvmerge v18.0.0 ('Apricity') 64-bit
Writing library : libebml v1.3.5 + libmatroska v1.4.8
Video
ID : 1
Format : HEVC
Format/Info : High Efficiency Video Coding
Format profile : Main 10@L5.1@High
Codec ID : V_MPEGH/ISO/HEVC
Duration : 1 h 53 min
Bit rate : 45.1 Mb/s
Width : 3 840 pixels
Height : 2 160 pixels
Display aspect ratio : 16:9
Frame rate mode : Constant
Frame rate : 23.976 (24000/1001) FPS
Color space : YUV
Chroma subsampling : 4:2:0 (Type 2)
Bit depth : 10 bits
Bits/(Pixel*Frame) : 0.227
Stream size : 35.7 GiB (87%)
Writing library : ATEME Titan KFE 3.7.3 (4.7.3.1001)
Language : English
Default : Yes
Forced : No
Color range : Limited
Color primaries : BT.2020
Transfer characteristics : PQ
Matrix coefficients : BT.2020 non-constant
Mastering display color pri : R: x=0.680000 y=0.320000, G: x=0.265000 y=0.690000, B: x=0.150000 y=0.060000, White point: x=0.312700 y=0.329000
Mastering display luminance : min: 0.0000 cd/m2, max: 1100.0000 cd/m2
Audio #1
ID : 2
Format : AC-3
Format/Info : Audio Coding 3
Format settings, Endianness : Big
Codec ID : A_AC3
Duration : 1 h 53 min
Bit rate mode : Constant
Bit rate : 640 kb/s
Channel(s) : 6 channels
Channel positions : Front: L C R, Side: L R, LFE
Sampling rate : 48.0 kHz
Frame rate : 31.250 FPS (1536 SPF)
Bit depth : 16 bits
Compression mode : Lossy
Stream size : 519 MiB (1%)
Title : Dub [License]
Language : Russian
Service kind : Complete Main
Default : Yes
Forced : No
Audio #2
ID : 3
Format : AC-3
Format/Info : Audio Coding 3
Format settings, Endianness : Big
Codec ID : A_AC3
Duration : 1 h 53 min
Bit rate mode : Constant
Bit rate : 640 kb/s
Channel(s) : 6 channels
Channel positions : Front: L C R, Side: L R, LFE
Sampling rate : 48.0 kHz
Frame rate : 31.250 FPS (1536 SPF)
Bit depth : 16 bits
Compression mode : Lossy
Stream size : 519 MiB (1%)
Title : AVO [Yesarev]
Language : Russian
Service kind : Complete Main
Default : No
Forced : No
Audio #3
ID : 4
Format : DTS
Format/Info : Digital Theater Systems
Format profile : MA / ES Matrix / Core
Mode : 16
Format settings, Endianness : Big
Codec ID : A_DTS
Duration : 1 h 53 min
Bit rate mode : Variable / Constant / Constant
Bit rate : 5 627 kb/s / 1 509 kb/s / 1 509 kb/s
Channel(s) : 8 channels / 7 channels / 6 channels
Channel positions : Front: L C R, Side: L R, Back: L R, LFE / Front: L C R, Side: L R, Back: C, LFE / Front: L C R, Side: L R, LFE
Sampling rate : 48.0 kHz
Frame rate : 93.750 FPS (512 SPF)
Bit depth : 24 bits
Compression mode : Lossless / Lossy / Lossy
Stream size : 4.47 GiB (11%)
Title : Original
Language : English
Default : No
Forced : No
Text #1
ID : 5
Format : UTF-8
Codec ID : S_TEXT/UTF8
Codec ID/Info : UTF-8 Plain Text
Duration : 1 h 45 min
Bit rate : 63 b/s
Count of elements : 1211
Stream size : 49.0 KiB (0%)
Title : Full
Language : Russian
Default : No
Forced : No
Text #2
ID : 6
Format : UTF-8
Codec ID : S_TEXT/UTF8
Codec ID/Info : UTF-8 Plain Text
Duration : 1 h 44 min
Bit rate : 39 b/s
Count of elements : 1187
Stream size : 30.6 KiB (0%)
Title : Full
Language : English
Default : No
Forced : No
Text #3
ID : 7
Format : UTF-8
Codec ID : S_TEXT/UTF8
Codec ID/Info : UTF-8 Plain Text
Duration : 1 h 45 min
Bit rate : 47 b/s
Count of elements : 1478
Stream size : 36.5 KiB (0%)
Title : SDH
Language : English
Default : No
Forced : No
Menu
00:00:00.000 : en:Chapter 01
00:03:12.650 : en:Chapter 02
00:07:15.976 : en:Chapter 03
00:10:25.249 : en:Chapter 04
00:14:15.562 : en:Chapter 05
00:17:21.248 : en:Chapter 06
00:19:33.337 : en:Chapter 07
00:23:21.022 : en:Chapter 08
00:24:36.391 : en:Chapter 09
00:28:13.107 : en:Chapter 10
00:31:26.009 : en:Chapter 11
00:34:12.050 : en:Chapter 12
00:37:11.810 : en:Chapter 13
00:41:00.875 : en:Chapter 14
00:42:16.617 : en:Chapter 15
00:45:47.452 : en:Chapter 16
00:48:31.823 : en:Chapter 17
00:52:57.797 : en:Chapter 18
00:55:21.774 : en:Chapter 19
00:57:58.807 : en:Chapter 20
00:59:31.150 : en:Chapter 21
01:01:35.273 : en:Chapter 22
01:05:13.909 : en:Chapter 23
01:08:42.408 : en:Chapter 24
01:12:14.246 : en:Chapter 25
01:14:22.832 : en:Chapter 26
01:20:27.823 : en:Chapter 27
01:22:25.649 : en:Chapter 28
01:25:38.173 : en:Chapter 29
01:29:41.582 : en:Chapter 30
01:33:49.457 : en:Chapter 31
01:36:43.255 : en:Chapter 32
01:39:33.425 : en:Chapter 33
01:43:05.595 : en:Chapter 34
01:45:08.217 : en:Chapter 35
01:46:12.657 : en:Chapter 36
01:53:26.548 : en:Chapter 37

Релиз от: Автор релиза:
Подпишись на меня, кликни по картинке > :



   Похожие торренты   Торрент   Размер 
В этой теме нет новых непрочитанных сообщений. Бегущий в лабиринте: Испытание огнём / Maze Runner: The Scorch Trials (2015) UHD BDRemux 2160p от ExKinoRay | 4K | HDR | Лицензия

7 | 7

46.97 ГБ

В этой теме нет новых непрочитанных сообщений. Бегущий в лабиринте / The Maze Runner (2014) BDRemux 1080p от ExKinoRay | D | Лицензия

190 | 39

24.19 ГБ

В этой теме нет новых непрочитанных сообщений. Бегущий в Лабиринте / The Maze Runner (2014) DVDRip-AVC от ExKinoRay | Лицензия

358 | 33

1.77 ГБ

В этой теме нет новых непрочитанных сообщений. Бегущий в лабиринте / The Maze Runner (2014) BDRip от ExKinoRay | Лицензия

748 | 34

1.46 ГБ

В этой теме нет новых непрочитанных сообщений. Бегущий в лабиринте / The Maze Runner (2014) BDRip 1080p от ExKinoRay | D | Лицензия

1539 | 137

7.22 ГБ

В этой теме нет новых непрочитанных сообщений. Бегущий в лабиринте / The Maze Runner (2014) BDRemux 1080p

441 | 132

23.37 ГБ

В этой теме нет новых непрочитанных сообщений. Бегущий в лабиринте / The Maze Runner (2014) HDRip-AVC от ExKinoRay | iTunes

1821 | 146

1.82 ГБ




Вы не можете начинать темы
Вы не можете отвечать на сообщения
Вы не можете редактировать свои сообщения
Вы не можете удалять свои сообщения
Вы не можете добавлять вложения

Перейти:  
 Вход
ppkBB3cker v.2 © 2008-2014 @ PPK
[ Time : 0.021s | 18 Queries | GZIP : Off ]

cron