img image001 image001 image001 image001 image001 image001 image001 image001 image001 image001 image001 image001 image001 image001 image001 image001

Planets Sun Sun Sun
Статистика раздачи
Автор: Nickolas3434 | Размер: 1.98 ГБ | Добавлен: 15 дек 2017
Раздают: 441    Качают: 14
Скачать торрент
Скачать торрент
Описание торрента

СообщениеДобавлено: 15 дек 2017 




Анонсы 1080p от qqss44



✘ ДЮНКЕРК ✘



Информация о фильме
✦ Год выхода: 2017
✦ Название: Дюнкерк
✦ Жанр: Военный, драма, история
✦ Оригинальное название: Dunkirk
✦ Режиссер: Кристофер Нолан
✦ В ролях: Финн Уайтхед, Том Глинн-Карни, Джек Лауден, Гарри Стайлс, Анейрин Барнард, Джеймс Д`Арси, Барри Кеоган, Кеннет Брана, Киллиан Мёрфи, Марк Райлэнс

Описание фильма
Фильм расскажет историю чудесного спасения более трехсот тысяч солдат в ходе Дюнкеркской операции, имевшей место в начале Второй мировой войны. События начинаются с окружения сотен тысяч британских и союзных войск силами противника. Пойманные в ловушку на пляже, и находясь спиной к морю, они сталкиваются лицом к лицу с неразрешимой ситуацией, тем временем как тиски противника сжимаются все сильнее и сильнее.

✦ Страна: США
✦ Продолжительность: 01:46:38
✦ Перевод: дублированный -
Лицензия

Информация о файле
✦ Формат:| MKV | x264 |
✦ Качество: BDRip-AVC
✦ Видео: X264/MPEG4-AVC | 1024x576 (16:9) | ~2211 kbps | 23.976 fps
✦ Аудио Rus: AC3 | 48 KHz | 5.1 (Front: L С R Side: L R) + LFE | ~448 kbps
✦ Субтитры: | Русские (форсированные, стилизованные, хардсаб) |

Общее
Уникальный идентификатор : 194842487029264425571009231000500073448 (0x92954C4B183E4C099BC03958CD6673E8)
Полное имя : X:�0000Dunkirk.(2017).BDRip-AVC.MegaPeer.by.(qqss44).mkv
Формат : Matroska
Версия формата : Version 2
Размер файла : 1,98 Гбайт
Продолжительность : 1 ч. 46 м.
Общий поток : 2659 Кбит/сек
Название фильма : Dunkirk.(2017).BDRip-AVC.MegaPeer.by.(qqss44)
Дата кодирования : UTC 2017-12-14 16:18:13
Программа кодирования : mkvmerge v5.8.0 ('No Sleep / Pillow') built on Sep 2 2012 15:37:04
Библиотека кодирования : libebml v1.2.3 + libmatroska v1.3.0
Видео
Идентификатор : 1
Формат : AVC
Формат/Информация : Advanced Video Codec
Профиль формата : High@L4.1
Параметр CABAC формата : Да
Параметр ReFrames формата : 11 кадров
Идентификатор кодека : V_MPEG4/ISO/AVC
Продолжительность : 1 ч. 46 м.
Битрейт : 2211 Кбит/сек
Ширина : 1024 пикселя
Высота : 576 пикселей
Соотношение сторон : 16:9
Режим частоты кадров : Постоянный
Частота кадров : 23,976 (24000/1001) кадра/сек
Цветовое пространство : YUV
Субдискретизация насыщенности : 4:2:0
Битовая глубина : 8 бит
Тип развёртки : Прогрессивная
Бит/(Пиксели*Кадры) : 0.156
Размер потока : 1,61 Гбайт (81%)
Библиотека кодирования : x264 core 152 r2851kMod ba24899
Настройки программы : cabac=1 / ref=11 / deblock=1:-1:-1 / analyse=0x3:0x113 / me=umh / subme=11 / psy=1 / fade_compensate=0.00 / psy_rd=1.00:0.00 / mixed_ref=1 / me_range=32 / chroma_me=1 / trellis=2 / 8x8dct=1 / cqm=0 / deadzone=21,11 / fast_pskip=0 / chroma_qp_offset=-2 / threads=12 / lookahead_threads=2 / sliced_threads=0 / nr=0 / decimate=0 / interlaced=0 / bluray_compat=0 / constrained_intra=0 / bframes=9 / b_pyramid=2 / b_adapt=2 / b_bias=0 / direct=3 / weightb=1 / open_gop=0 / weightp=2 / keyint=240 / keyint_min=23 / scenecut=40 / intra_refresh=0 / rc_lookahead=40 / rc=2pass / mbtree=0 / bitrate=2211 / ratetol=1.0 / qcomp=0.70 / qpmin=0 / qpmax=69 / qpstep=4 / cplxblur=20.0 / qblur=0.5 / vbv_maxrate=50000 / vbv_bufsize=62500 / nal_hrd=none / filler=0 / ip_ratio=1.40 / pb_ratio=1.30 / aq=3:0.70
Язык : English
Default : Да
Forced : Нет
Аудио
Идентификатор : 2
Формат : AC-3
Формат/Информация : Audio Coding 3
Расширение режима : CM (complete main)
Параметр Endianness формата : Big
Идентификатор кодека : A_AC3
Продолжительность : 1 ч. 46 м.
Вид битрейта : Постоянный
Битрейт : 448 Кбит/сек
Каналы : 6 каналов
Расположение каналов : Front: L C R, Side: L R, LFE
Частота : 48,0 КГц
Частота кадров : 31,250 кадров/сек (1536 spf)
Метод сжатия : С потерями
Размер потока : 342 Мбайт (17%)
Default : Да
Forced : Нет
Меню
00:00:00.000 : en:00:00:00.000
00:08:51.364 : en:00:08:51.364
00:20:13.754 : en:00:20:13.754
00:29:07.621 : en:00:29:07.621
00:42:35.261 : en:00:42:35.261
00:52:48.207 : en:00:52:48.207
01:04:32.827 : en:01:04:32.827
01:12:50.825 : en:01:12:50.825
01:25:55.025 : en:01:25:55.025
01:33:23.348 : en:01:33:23.348
01:39:13.906 : en:01:39:13.906


Релиз от:



   Похожие торренты   Торрент   Размер 
В этой теме нет новых непрочитанных сообщений. Дюнкерк / Dunkirk (2017) BDRip 1080p от MegaPeer & qqss44 | IMAX | Лицензия

457 | 17

7.78 ГБ

В этой теме нет новых непрочитанных сообщений. Дюнкерк / Dunkirk (2017) BDRip от MegaPeer | IMAX | Лицензия

116 | 5

745.88 МБ

В этой теме нет новых непрочитанных сообщений. Дюнкерк / Dunkirk (2017) BDRip от MegaPeer | IMAX | Лицензия

8948 | 231

1.46 ГБ

В этой теме нет новых непрочитанных сообщений. Дюнкерк / Dunkirk (2017) BDRip | IMAX | Лицензия

504 | 17

2.18 ГБ

В этой теме нет новых непрочитанных сообщений. Дюнкерк / Dunkirk (2017) BDRip-AVC от ExKinoRay | IMAX | Лицензия

247 | 9

1.45 ГБ

В этой теме нет новых непрочитанных сообщений. Дюнкерк / Dunkirk (2017) BDRip-AVC от New-Team | IMAX | Лицензия

102 | 7

2.87 ГБ

В этой теме нет новых непрочитанных сообщений. Дюнкерк / Dunkirk (2017) BDRip-AVC от HELLYWOOD | IMAX | Лицензия

105 | 7

1.65 ГБ




Вы не можете начинать темы
Вы не можете отвечать на сообщения
Вы не можете редактировать свои сообщения
Вы не можете удалять свои сообщения
Вы не можете добавлять вложения

Перейти:  
 Вход
ppkBB3cker v.2 © 2008-2014 @ PPK
[ Time : 0.057s | 19 Queries | GZIP : Off ]

cron