img image001 image001 image001 image001 image001 image001 image001 image001 image001 image001 image001 image001 image001 image001 image001 image001

Planets Sun Sun Sun
Статистика раздачи
Автор: Nickolas3434 | Размер: 2.07 ГБ | Добавлен: 15 дек 2017
Раздают: 7    Качают: 0
Скачать торрент
Скачать торрент
Описание торрента

СообщениеДобавлено: 15 дек 2017 

Год выпуска: 2012
Оригинальное название: No One Lives
Страна: США, Великобритания
Жанр: триллер, ужасы
Возраст: 18+
Режиссер: Рюхэй Китамура
В ролях: Люк Эванс, Эделейд Клеменс, Дерек Магияр, Бо Напп, Америка Оливо, Ли Тергесен, Линдси Шоу, Джордж Мердок, Лора Рэмси, Гэри Граббс
Описание: Безжалостные преступники спрятали в заброшенном доме двух заложников, юношу и девушку. Однако через некоторое время головорезы находят заложницу мертвой и неожиданно понимают, что юноша не так прост, как казался на первый взгляд. И теперь это он на них охотится…
Продолжительность: 01:26:23
Перевод: Дублированный
Оригинальная дорожка: есть
Автор рипа:
Качество видео: BDRip 720p Исходник: Blu-Ray Remux (1080p) Формат: mp4
Видео кодек: MPEG-4 AVC Аудио кодек: AAC
Видео: 1280x534 (2.40:1) at 23.976 fps, AVC at 3 092 kbps avg, 0.189 bit/pixel
Аудио №1 Rus: 48.0 KHz, AAC, 2 ch, 160.0 Kbps
Аудио №2 Eng: 48.0 KHz, AAC, 2 ch, 160.0 Kbps
Субтитры: русские (полные)
Навигация по главам: есть
Размер: 2.07 GiB
avs [info]: 1280x534p 1:1 @ 24000/1001 fps (cfr)
x264 [info]: using SAR=1/1
x264 [info]: using cpu capabilities: MMX2 SSE2Fast SSSE3 Cache64
x264 [info]: profile High, level 4.1
x264 [info]: frame I:815 Avg QP:14.72 size: 76446
x264 [info]: frame P:23424 Avg QP:18.61 size: 27405
x264 [info]: frame B:100033 Avg QP:20.41 size: 12986
x264 [info]: consecutive B-frames: 1.3% 1.8% 3.8% 13.0% 17.7% 40.5% 7.1% 3.6% 2.4% 1.6% 1.6% 3.8% 1.8%
x264 [info]: mb I I16..4: 10.5% 75.5% 14.0%
x264 [info]: mb P I16..4: 1.1% 10.2% 0.8% P16..4: 39.5% 20.7% 14.4% 0.0% 0.0% skip:13.3%
x264 [info]: mb B I16..4: 0.0% 1.4% 0.1% B16..8: 42.7% 8.4% 2.1% direct: 6.6% skip:38.8% L0:45.9% L1:48.2% BI: 5.9%
x264 [info]: 8x8 transform intra:85.4% inter:63.5%
x264 [info]: coded y,uvDC,uvAC intra: 83.0% 75.2% 43.2% inter: 26.6% 21.4% 1.3%
x264 [info]: i16 v,h,dc,p: 52% 16% 9% 24%
x264 [info]: i8 v,h,dc,ddl,ddr,vr,hd,vl,hu: 17% 9% 34% 6% 8% 8% 6% 7% 7%
x264 [info]: i4 v,h,dc,ddl,ddr,vr,hd,vl,hu: 28% 14% 17% 6% 8% 8% 7% 6% 5%
x264 [info]: i8c dc,h,v,p: 57% 15% 20% 7%
x264 [info]: Weighted P-Frames: Y:6.4% UV:3.9%
x264 [info]: ref P L0: 44.0% 7.1% 18.3% 8.0% 6.4% 5.0% 4.3% 2.4% 2.3% 2.1% 0.1% 0.0%
x264 [info]: ref B L0: 70.5% 12.1% 6.8% 3.3% 2.5% 2.0% 1.7% 0.8% 0.3%
x264 [info]: ref B L1: 93.1% 6.9%
x264 [info]: kb/s:3091.92
encoded 124272 frames, 1.49 fps, 3091.92 kb/s

General
Complete name : ...Nikto_ne_vyzhil_2012_KinoGadget.mp4
Format : MPEG-4
Format profile : Base Media
Codec ID : isom (isom)
File size : 2.07 GiB
Duration : 1 h 26 min
Overall bit rate mode : Variable
Overall bit rate : 3 423 kb/s
Movie name : Никто не выжил | KinoGadget
Performer : Рюхэй Китамура
Director : Рюхэй Китамура
Actor : Люк Эванс / Эделейд Клеменс / Дерек Магияр / Бо Напп / Америка Оливо / Ли Тергесен / Линдси Шоу / Джордж Мердок / Лора Рэмси / Гэри Граббс
Screenplay by : Дэвид Коэн
Producer : Гарри Кнапп / Ками Нахди / Элтон Брэнд
Genre : Horror, Thriller
ContentType : Short Film
Recorded date : 2012
Encoded date : UTC 2017-12-14 17:56:11
Tagged date : UTC 2017-12-14 18:38:10
Cover : Yes
ContentRating : mpaa|R|400|
LongDeion : Безжалостные преступники спрятали в заброшенном доме двух заложников, юношу и девушку. Однако через некоторое время головорезы находят заложницу мертвой и неожиданно понимают, что юноша не так прост, как казался на первый взгляд. И теперь это он на них охотится…
HDVideo : Yes
Video
ID : 1
Format : AVC
Format/Info : Advanced Video Codec
Format profile : High@L4.1
Format settings : CABAC / 10 Ref Frames
Format settings, CABAC : Yes
Format settings, ReFrames : 10 frames
Codec ID : avc1
Codec ID/Info : Advanced Video Coding
Duration : 1 h 26 min
Bit rate : 3 092 kb/s
Maximum bit rate : 15.1 Mb/s
Width : 1 280 pixels
Height : 534 pixels
Display aspect ratio : 2.40:1
Frame rate mode : Constant
Frame rate : 23.976 (24000/1001) FPS
Color space : YUV
Chroma subsampling : 4:2:0
Bit depth : 8 bits
Scan type : Progressive
Bits/(Pixel*Frame) : 0.189
Stream size : 1.87 GiB (90%)
Writing library : x264 core 152 r2851 ba24899
Encoding settings : cabac=1 / ref=10 / deblock=1:-2:-1 / analyse=0x3:0x113 / me=umh / subme=7 / psy=1 / psy_rd=1.00:0.00 / mixed_ref=1 / me_range=32 / chroma_me=1 / trellis=2 / 8x8dct=1 / cqm=0 / deadzone=21,11 / fast_pskip=0 / chroma_qp_offset=-2 / threads=3 / lookahead_threads=1 / sliced_threads=0 / nr=0 / decimate=1 / interlaced=0 / bluray_compat=0 / constrained_intra=0 / bframes=12 / b_pyramid=2 / b_adapt=2 / b_bias=0 / direct=1 / weightb=1 / open_gop=0 / weightp=2 / keyint=250 / keyint_min=25 / scenecut=40 / intra_refresh=0 / rc_lookahead=60 / rc=crf / mbtree=1 / crf=19.0 / qcomp=0.60 / qpmin=0 / qpmax=69 / qpstep=4 / vbv_maxrate=62500 / vbv_bufsize=78125 / crf_max=0.0 / nal_hrd=none / filler=0 / ip_ratio=1.40 / aq=1:1.00
Encoded date : UTC 2017-12-14 11:51:24
Tagged date : UTC 2017-12-14 17:57:41
Audio #1
ID : 2
Format : AAC
Format/Info : Advanced Audio Codec
Format profile : LC
Codec ID : mp4a-40-2
Duration : 1 h 26 min
Bit rate mode : Variable
Bit rate : 160 kb/s
Maximum bit rate : 165 kb/s
Channel(s) : 2 channels
Channel positions : Front: L R
Sampling rate : 48.0 kHz
Frame rate : 46.875 FPS (1024 SPF)
Compression mode : Lossy
Stream size : 98.8 MiB (5%)
Language : Russian
Encoded date : UTC 2017-12-14 12:40:12
Tagged date : UTC 2017-12-14 17:57:41
Audio #2
ID : 3
Format : AAC
Format/Info : Advanced Audio Codec
Format profile : LC
Codec ID : mp4a-40-2
Duration : 1 h 26 min
Bit rate mode : Variable
Bit rate : 160 kb/s
Maximum bit rate : 165 kb/s
Channel(s) : 2 channels
Channel positions : Front: L R
Sampling rate : 48.0 kHz
Frame rate : 46.875 FPS (1024 SPF)
Compression mode : Lossy
Stream size : 98.9 MiB (5%)
Language : English
Encoded date : UTC 2017-12-14 14:54:12
Tagged date : UTC 2017-12-14 17:57:41
Text
ID : 4
Format : Timed Text
Codec ID : tx3g
Duration : 1 h 19 min
Bit rate mode : Variable
Bit rate : 72 b/s
Stream size : 41.8 KiB (0%)
Language : Russian
Forced : No
Encoded date : UTC 2017-12-14 17:57:41
Tagged date : UTC 2017-12-14 17:57:41
Menu
00:00:00.000 : Chapter 01
00:07:41.294 : Chapter 02
00:16:35.411 : Chapter 03
00:22:39.066 : Chapter 04
00:28:37.674 : Chapter 05
00:35:09.982 : Chapter 06
00:42:26.168 : Chapter 07
00:51:29.461 : Chapter 08
00:58:56.741 : Chapter 09
01:08:09.210 : Chapter 10
01:12:19.126 : Chapter 11
01:18:29.496 : Chapter 12



Данный рип предназначен для просмотра на мобильных гаджетах с поддержкой формата mp4



   Похожие торренты   Торрент   Размер 
В этой теме нет новых непрочитанных сообщений. Забирая жизни / Taking Lives (2004) BDRip 720p от KinoGadget | Режиссерская версия | iPad | D

32 | 2

1.64 ГБ

В этой теме нет новых непрочитанных сообщений. Никто не выжил / No One Lives (2012) BDRip 720p | Лицензия

13 | 6

4.9 ГБ

В этой теме нет новых непрочитанных сообщений. Никто не выжил / No One Lives (2012) BDRip 720p | US Transfer

18 | 7

6.65 ГБ

В этой теме нет новых непрочитанных сообщений. Никто не выжил / No One Lives (2012) BDRip 720p от leonardo 59 | Лицензия

30 | 6

2.74 ГБ

В этой теме нет новых непрочитанных сообщений. Никто не выжил / No One Lives (2012) BDRip от Rulya74 | D. L1

100 | 12

2.03 ГБ

В этой теме нет новых непрочитанных сообщений. Никто не выжил / No One Lives (2012) BDRip 1080p

39 | 5

5.76 ГБ

В этой теме нет новых непрочитанных сообщений. Никто не выжил / No One Lives (2012) BDRip от MediaClub | КПК

113 | 7

399.18 МБ




Вы не можете начинать темы
Вы не можете отвечать на сообщения
Вы не можете редактировать свои сообщения
Вы не можете удалять свои сообщения
Вы не можете добавлять вложения

Перейти:  
 Вход
ppkBB3cker v.2 © 2008-2014 @ PPK
[ Time : 0.030s | 18 Queries | GZIP : Off ]

cron