img image001 image001 image001 image001 image001 image001 image001 image001 image001 image001 image001 image001 image001 image001 image001 image001

Planets Sun Sun Sun
Статистика раздачи
Автор: Nickolas3434 | Размер: 7.1 ГБ | Добавлен: 15 дек 2017
Раздают: 7    Качают: 2
Скачать торрент
Скачать торрент
Описание торрента

СообщениеДобавлено: 15 дек 2017 

Информация о фильме
Название: Уикенд у Берни
Оригинальное название: Weekend at Bernie's
Год выхода: 1989
Жанр: Комедия
Режиссер: Тед Котчефф
В ролях: Эндрю МакКарти, Джонатан Силвермэн, Кэтрин Мэри Стюарт, Терри Кайзер, Дон Калфа, Кэтрин Паркс
О фильме:
Ричард и Ларри - двое приятелей, мечтающих сделать хорошую карьеру в своей страховой компании. Случайно узнав о том, что кто-то "выкачал" из их фирмы крупную сумму денег, они немедленно доложили обо всем своему боссу Берни Ломаксу. Шеф щедро вознаградил рвение приятелей, пригласив провести уик-энд в собственном роскошном особняке на берегу океана. Конечно же друзья с радостью соглашаются принять участие в "празднике жизни" богачей. Правда, по прибытии на место парни обнаруживают, что хозяин дома "приказал долго жить". Но разве такой пустяк может омрачить классную вечеринку?! Главное, чтобы гости ничего не заметили...

Страна: США
Студия: Gladden Entertainment Corparation
Продолжительность: 01:38:21
Перевод: Профессиональный (многоголосый закадровый), Авторский (одноголосый закадровый)
Файл
Кодек: HEVC x265 10 bit
Качество: BDRip-HEVC 1080p
Видео: 1920x1080 (16:9), 9309 Кбит/сек, 0.187 бит/(Пиксели*Кадры), 23,976 кадр/сек (24000/1001), HEVC (Main10@L.4.1@High) 10 бит
Звук:
Русская, AC3, 192 Кбит/сек, Front: L R, 48,0 КГц (MVO)
Русская, AC3, 192 Кбит/сек, Front: L R, 48,0 КГц (AVO Михалёв)
Русская, AC3, 192 Кбит/сек, Front: L R, 48,0 КГц (AVO Живов)
Русская, AC3, 192 Кбит/сек, Front: L R, 48,0 КГц (AVO Дохалов)
Английская, AC3, 192 Кбит/сек, Front: L R, 48,0 КГц (Оригинал)
Субтитры: Английские
Семпл
Общее
Уникальный идентификатор : 245023337943500652760102486590659518672 (0xB855C742B9E460D4A3CD4E5C1AE060D0)
Полное имя : H:HEVC 210 BITWeekend at Bernie's_1989_BDRip_1080p_[HEVC]_10bit.mkv
Формат : Matroska
Версия формата : Version 4 / Version 2
Размер файла : 7,10 Гбайт
Продолжительность : 1 ч. 39 м.
Общий поток : 10,3 Мбит/сек
Дата кодирования : UTC 2017-12-14 16:01:30
Программа кодирования : mkvmerge v18.0.0 ('Apricity') 64-bit
Библиотека кодирования : libebml v1.3.5 + libmatroska v1.4.8
Обложка : Yes
Attachments : cover.png
Видео
Идентификатор : 1
Формат : HEVC
Формат/Информация : High Efficiency Video Coding
Профиль формата : Main 10@L4.1@High
Идентификатор кодека : V_MPEGH/ISO/HEVC
Продолжительность : 1 ч. 38 м.
Битрейт : 9309 Кбит/сек
Ширина : 1920 пикселей
Высота : 1080 пикселей
Соотношение сторон : 16:9
Режим частоты кадров : Постоянный
Частота кадров : 23,976 (24000/1001) кадра/сек
Цветовое пространство : YUV
Субдискретизация насыщенности : 4:2:0
Битовая глубина : 10 бит
Бит/(Пиксели*Кадры) : 0.187
Размер потока : 6,44 Гбайт (91%)
Библиотека кодирования : x265 2.5+20-0967d0add97e:[Windows][GCC 7.2.0][64 bit] 10bit
Настройки программы : cpuid=1173503 / frame-threads=4 / numa-pools=16 / wpp / no-pmode / no-pme / no-psnr / no-ssim / log-level=2 / input-csp=1 / input-res=1920x1080 / interlace=0 / total-frames=0 / level-idc=41 / high-tier=1 / uhd-bd=0 / ref=5 / no-allow-non-conformance / no-repeat-headers / annexb / no-aud / no-hrd / info / hash=0 / no-temporal-layers / open-gop / min-keyint=23 / keyint=240 / bframes=8 / b-adapt=2 / no-b-pyramid / bframe-bias=0 / rc-lookahead=60 / lookahead-slices=4 / scenecut=40 / no-intra-refresh / ctu=64 / min-cu-size=8 / rect / no-amp / max-tu-size=32 / tu-inter-depth=2 / tu-intra-depth=2 / limit-tu=1 / rdoq-level=0 / dynamic-rd=0.00 / no-ssim-rd / signhide / no-tskip / nr-intra=0 / nr-inter=0 / no-constrained-intra / no-strong-intra-smoothing / max-merge=3 / limit-refs=3 / limit-modes / me=3 / subme=7 / merange=57 / temporal-mvp / weightp / weightb / no-analyze-src-pics / deblock=-3:-3 / no-sao / no-sao-non-deblock / rd=4 / no-early-skip / rskip / no-fast-intra / no-tskip-fast / no-cu-lossless / no-b-intra / no-splitrd-skip / rdpenalty=0 / psy-rd=2.00 / psy-rdoq=0.00 / no-rd-refine / analysis-reuse-mode=0 / no-lossless / cbqpoffs=0 / crqpoffs=0 / rc=crf / crf=18.5 / qcomp=0.60 / qpstep=4 / stats-write=0 / stats-read=0 / vbv-maxrate=50000 / vbv-bufsize=50000 / vbv-init=0.9 / crf-max=0.0 / crf-min=0.0 / ipratio=1.40 / pbratio=1.30 / aq-mode=1 / aq-strength=1.00 / cutree / zone-count=2 / zones: / start-frame=1 / end-frame=912 / qp=35 / zones: / start-frame=137538 / end-frame=142414 / qp=35 / no-strict-cbr / qg-size=32 / no-rc-grain / qpmax=69 / qpmin=0 / no-const-vbv / sar=1 / overscan=0 / videoformat=5 / range=0 / colorprim=2 / transfer=2 / colormatrix=1 / chromaloc=0 / display-window=0 / max-cll=0,0 / min-luma=0 / max-luma=1023 / log2-max-poc-lsb=8 / vui-timing-info / vui-hrd-info / slices=1 / opt-qp-pps / opt-ref-list-length-pps / no-multi-pass-opt-rps / scenecut-bias=0.05 / no-opt-cu-delta-qp / no-aq-motion / no-hdr / no-hdr-opt / no-dhdr10-opt / analysis-reuse-level=5 / scale-factor=0 / refine-intra=0 / refine-inter=0 / refine-mv=0 / no-limit-sao / ctu-info=0
Default : Да
Forced : Да
Цветовой диапазон : Limited
Коэффициенты матрицы : BT.709
Аудио #1
Идентификатор : 2
Формат : AC-3
Формат/Информация : Audio Coding 3
Идентификатор кодека : A_AC3
Продолжительность : 1 ч. 39 м.
Вид битрейта : Постоянный
Битрейт : 192 Кбит/сек
Каналы : 2 канала
Расположение каналов : Front: L R
Частота : 48,0 КГц
Частота кадров : 31,250 кадров/сек (1536 SPF)
Битовая глубина : 16 бит
Метод сжатия : С потерями
Размер потока : 136 Мбайт (2%)
Заголовок : MVO
Язык : Russian
ServiceKind : Complete Main
Default : Да
Forced : Нет
Аудио #2
Идентификатор : 3
Формат : AC-3
Формат/Информация : Audio Coding 3
Идентификатор кодека : A_AC3
Продолжительность : 1 ч. 39 м.
Вид битрейта : Постоянный
Битрейт : 192 Кбит/сек
Каналы : 2 канала
Расположение каналов : Front: L R
Частота : 48,0 КГц
Частота кадров : 31,250 кадров/сек (1536 SPF)
Битовая глубина : 16 бит
Метод сжатия : С потерями
Размер потока : 136 Мбайт (2%)
Заголовок : AVO Михалёв
Язык : Russian
ServiceKind : Complete Main
Default : Нет
Forced : Нет
Аудио #3
Идентификатор : 4
Формат : AC-3
Формат/Информация : Audio Coding 3
Идентификатор кодека : A_AC3
Продолжительность : 1 ч. 39 м.
Вид битрейта : Постоянный
Битрейт : 192 Кбит/сек
Каналы : 2 канала
Расположение каналов : Front: L R
Частота : 48,0 КГц
Частота кадров : 31,250 кадров/сек (1536 SPF)
Битовая глубина : 16 бит
Метод сжатия : С потерями
Размер потока : 136 Мбайт (2%)
Заголовок : AVO Живов
Язык : Russian
ServiceKind : Complete Main
Default : Нет
Forced : Нет
Аудио #4
Идентификатор : 5
Формат : AC-3
Формат/Информация : Audio Coding 3
Идентификатор кодека : A_AC3
Продолжительность : 1 ч. 39 м.
Вид битрейта : Постоянный
Битрейт : 192 Кбит/сек
Каналы : 2 канала
Расположение каналов : Front: L R
Частота : 48,0 КГц
Частота кадров : 31,250 кадров/сек (1536 SPF)
Битовая глубина : 16 бит
Метод сжатия : С потерями
Размер потока : 136 Мбайт (2%)
Заголовок : AVO Дохалов
Язык : Russian
ServiceKind : Complete Main
Default : Нет
Forced : Нет
Аудио #5
Идентификатор : 6
Формат : AC-3
Формат/Информация : Audio Coding 3
Идентификатор кодека : A_AC3
Продолжительность : 1 ч. 39 м.
Вид битрейта : Постоянный
Битрейт : 192 Кбит/сек
Каналы : 2 канала
Расположение каналов : Front: L R
Частота : 48,0 КГц
Частота кадров : 31,250 кадров/сек (1536 SPF)
Битовая глубина : 16 бит
Метод сжатия : С потерями
Размер потока : 136 Мбайт (2%)
Заголовок : Оригинал
Язык : English
ServiceKind : Complete Main
Default : Нет
Forced : Нет
Текст
Идентификатор : 7
Формат : UTF-8
Идентификатор кодека : S_TEXT/UTF8
Идентификатор кодека/Информация : UTF-8 Plain Text
Продолжительность : 1 ч. 34 м.
Битрейт : 69 бит/сек
ElementCount : 1374
Размер потока : 47,7 Кбайт (0%)
Заголовок : Английские
Язык : English
Default : Да
Forced : Нет

Релиз от: от XuMuK



   Похожие торренты   Торрент   Размер 
В этой теме нет новых непрочитанных сообщений. Уик-энд у Берни / Weekend at Bernie's (1989) BDRemux 1080p | P, A

0 | 0

18.58 ГБ

В этой теме нет новых непрочитанных сообщений. Уик-энд у Берни / Weekend at Bernie's (1989) BDRip 720p | P, A

7 | 1

5.3 ГБ

В этой теме нет новых непрочитанных сообщений. Уик-энд у Берни / Weekend at Bernie's (Тед Котчефф) [1989, комедия, криминал, приключения, BDRip-AVC] MVO+AVO

7 | 0

745.9 МБ

В этой теме нет новых непрочитанных сообщений. Уик-энд у Берни / Weekend at Bernie's (1989) HDRip от Scarabey | P

102 | 13

1.45 ГБ

В этой теме нет новых непрочитанных сообщений. Уик-энд у Берни 2 / Weekend at Bernie's II (1993) WEBRip 1080p от Переулка Переводмана | А

3 | 0

9.12 ГБ

В этой теме нет новых непрочитанных сообщений. Берни / Bernie (1996) BDRip 720p от Leonardo | P2

112 | 58

4.37 ГБ

В этой теме нет новых непрочитанных сообщений. Жмурки (2005) BDRip-HEVC 1080p от ХиМиК

45 | 6

5.23 ГБ




Вы не можете начинать темы
Вы не можете отвечать на сообщения
Вы не можете редактировать свои сообщения
Вы не можете удалять свои сообщения
Вы не можете добавлять вложения

Перейти:  
 Вход
ppkBB3cker v.2 © 2008-2014 @ PPK
[ Time : 0.024s | 18 Queries | GZIP : Off ]

cron