img image001 image001 image001 image001 image001 image001 image001 image001 image001 image001 image001 image001 image001 image001 image001

Planets Sun Sun Sun
Статистика раздачи
Автор: Nickolas3434 | Размер: 4.65 ГБ | Добавлен: 15 дек 2017
Раздают: 2    Качают: 0
Скачать торрент
Скачать торрент
Описание торрента

СообщениеДобавлено: 15 дек 2017 

Информация о фильме
Название: Рим, открытый город
Оригинальное название: Roma città aperta
Год выхода: 1945
Жанр: Драма, военный
Режиссер: Роберто Росселлини
В ролях: Альдо Фабрици, Анна Маньяни, Марчелло Пальеро, Вито Анникьярико, Нандо Бруно, Харри Файст, Джованна Галлетти, Франческо Гранжаке, Эдуардо Пассарелли, Мария Мики
О фильме: Рим в последние месяцы оккупации. Умирающая немецкая армия отчаянно хранит последние свои оплоты и жестоко расправляется с мятежниками. Но в сердце города уже родился свой отряд Сопротивления. Близок конец войны…



Страна: Италия
Студия: Excelsa Film
Продолжительность: 01:42:44
Перевод: Профессиональный, многоголосый ~ Кармен Видео | ВГТРК
Файл
Кодек: MPEG-4 AVC
Качество: BDRip 720p
Видео: 966x720, 5900kb/, 23.976fps
Звук:
1] 192kb/s, 2ch, 48000kHz, AC3 [RUS] | Кармен Видео
2] 192kb/s, 2ch, 48000kHz, AC3 [RUS] | ВГТРК
3] 192kb/s, 2ch, 48000kHz, AC3 [ITA] | Итальянский оригинал
Субтитры: Русские, английские, итальянские
Общее
Уникальный идентификатор : 199838425593282775881703282541782574492 (0x96577B14FBBC4A1C9642CEEFE733259C)
Полное имя : C:Рим, открытый город [Roma, città aperta] 1945 [BDRip-720p].mkv
Формат : Matroska
Версия формата : Version 2
Размер файла : 4,65 Гбайт
Продолжительность : 1 ч. 42 м.
Общий поток : 6477 Кбит/сек
Название фильма : Roma, città aperta (1945) - Release for HDCLUB
Дата кодирования : UTC 2012-02-15 12:15:29
Программа кодирования : mkvmerge v3.2.0 ('Beginnings') built on Feb 12 2010 16:46:17
Библиотека кодирования : libebml v0.7.9 + libmatroska v0.8.1
Видео
Идентификатор : 1
Формат : AVC
Формат/Информация : Advanced Video Codec
Профиль формата : High@L4.1
Настройки формата : CABAC / 9 Ref Frames
Параметр CABAC формата : Да
Параметр RefFrames формата : 9 кадров
Идентификатор кодека : V_MPEG4/ISO/AVC
Продолжительность : 1 ч. 42 м.
Битрейт : 5900 Кбит/сек
Ширина : 966 пикселей
Высота : 720 пикселей
Соотношение сторон : 4:3
Режим частоты кадров : Постоянный
Частота кадров : 23,976 (24000/1001) кадра/сек
Цветовое пространство : YUV
Субдискретизация насыщенности : 4:2:0
Битовая глубина : 8 бит
Тип развёртки : Прогрессивная
Бит/(Пиксели*Кадры) : 0.354
Размер потока : 4,14 Гбайт (89%)
Заголовок : Release for HDCLUB
Библиотека кодирования : x264 core 118 r2085 8a62835
Настройки программы : cabac=1 / ref=9 / deblock=1:-3:-3 / analyse=0x3:0x133 / me=umh / subme=11 / psy=1 / psy_rd=1.10:0.00 / mixed_ref=1 / me_range=64 / chroma_me=1 / trellis=2 / 8x8dct=1 / cqm=0 / deadzone=21,11 / fast_pskip=0 / chroma_qp_offset=-2 / threads=12 / sliced_threads=0 / nr=0 / decimate=0 / interlaced=0 / bluray_compat=0 / constrained_intra=0 / bframes=12 / b_pyramid=2 / b_adapt=2 / b_bias=0 / direct=3 / weightb=1 / open_gop=0 / weightp=2 / keyint=250 / keyint_min=23 / scenecut=40 / intra_refresh=0 / rc_lookahead=40 / rc=2pass / mbtree=0 / bitrate=5900 / ratetol=1.0 / qcomp=0.70 / qpmin=0 / qpmax=69 / qpstep=4 / cplxblur=20.0 / qblur=0.5 / vbv_maxrate=50000 / vbv_bufsize=62500 / nal_hrd=none / ip_ratio=1.40 / pb_ratio=1.30 / aq=1:0.80
Язык : English
Default : Да
Forced : Нет
Цветовой диапазон : Limited
Основные цвета : BT.709
Характеристики трансфера : BT.709
Коэффициенты матрицы : BT.709
Аудио #1
Идентификатор : 2
Формат : AC-3
Формат/Информация : Audio Coding 3
Параметр Endianness формата : Big
Идентификатор кодека : A_AC3
Продолжительность : 1 ч. 42 м.
Вид битрейта : Постоянный
Битрейт : 192 Кбит/сек
Каналы : 2 канала
Расположение каналов : Front: L R
Частота : 48,0 КГц
Частота кадров : 31,250 кадров/сек (1536 SPF)
Битовая глубина : 16 бит
Метод сжатия : С потерями
Размер потока : 141 Мбайт (3%)
Заголовок : AC3 2.0 192 Kbps [Многоголосый, Кармен Видео]
Язык : Russian
Default : Да
Forced : Нет
Аудио #2
Идентификатор : 3
Формат : AC-3
Формат/Информация : Audio Coding 3
Параметр Endianness формата : Big
Идентификатор кодека : A_AC3
Продолжительность : 1 ч. 42 м.
Вид битрейта : Постоянный
Битрейт : 192 Кбит/сек
Каналы : 2 канала
Расположение каналов : Front: L R
Частота : 48,0 КГц
Частота кадров : 31,250 кадров/сек (1536 SPF)
Битовая глубина : 16 бит
Метод сжатия : С потерями
Размер потока : 141 Мбайт (3%)
Заголовок : AC3 2.0 192 Kbps [Многоголосый, ВГТРК]
Язык : Russian
Default : Нет
Forced : Нет
Аудио #3
Идентификатор : 4
Формат : AC-3
Формат/Информация : Audio Coding 3
Параметр Endianness формата : Big
Идентификатор кодека : A_AC3
Продолжительность : 1 ч. 42 м.
Вид битрейта : Постоянный
Битрейт : 192 Кбит/сек
Каналы : 2 канала
Расположение каналов : Front: L R
Частота : 48,0 КГц
Частота кадров : 31,250 кадров/сек (1536 SPF)
Битовая глубина : 16 бит
Метод сжатия : С потерями
Размер потока : 141 Мбайт (3%)
Заголовок : AC3 2.0 192 kbps [Оригинал]
Язык : Italian
Default : Нет
Forced : Нет
Текст #1
Идентификатор : 5
Формат : UTF-8
Идентификатор кодека : S_TEXT/UTF8
Идентификатор кодека/Информация : UTF-8 Plain Text
Язык : Russian
Default : Нет
Forced : Нет
Текст #2
Идентификатор : 6
Формат : UTF-8
Идентификатор кодека : S_TEXT/UTF8
Идентификатор кодека/Информация : UTF-8 Plain Text
Язык : English
Default : Нет
Forced : Нет
Текст #3
Идентификатор : 7
Формат : UTF-8
Идентификатор кодека : S_TEXT/UTF8
Идентификатор кодека/Информация : UTF-8 Plain Text
Язык : Italian
Default : Нет
Forced : Нет
Меню
00:00:00.000 : en:00:00:00.000
00:07:22.067 : en:00:07:22.067
00:13:25.221 : en:00:13:25.221
00:18:42.038 : en:00:18:42.038
00:27:44.955 : en:00:27:44.955
00:30:30.829 : en:00:30:30.829
00:38:51.454 : en:00:38:51.454
00:43:07.210 : en:00:43:07.210
00:46:24.073 : en:00:46:24.073
00:55:43.423 : en:00:55:43.423
00:58:03.438 : en:00:58:03.438
01:09:06.309 : en:01:09:06.309
01:14:39.141 : en:01:14:39.141
01:21:27.508 : en:01:21:27.508
01:25:46.016 : en:01:25:46.016
01:37:28.134 : en:01:37:28.134



   Похожие торренты   Торрент   Размер 
В этой теме нет новых непрочитанных сообщений. Рим, открытый город / Roma città aperta (1945) HDRip от ExKinoRay | P

12 | 2

745.78 МБ

В этой теме нет новых непрочитанных сообщений. Рим, открытый город / Roma città aperta (1945) BDRemux 1080р | P

10 | 5

26.01 ГБ

В этой теме нет новых непрочитанных сообщений. Рим, открытый город / Roma città aperta (1945) HDRip от ExKinoRay | P

0 | 1

1.37 ГБ

В этой теме нет новых непрочитанных сообщений. Город насилия / Violent City / Città violenta (1970) BDRip 720p | P

42 | 10

4.3 ГБ

В этой теме нет новых непрочитанных сообщений. Город женщин / La Città delle donne (1980) BDRip [720p] от HQ-ViDEO.

0 | 15

5.58 ГБ

В этой теме нет новых непрочитанных сообщений. Город насилия / Citta violenta (1970) BDRip-AVC от KinoZalSat

2 | 60

2.03 ГБ

В этой теме нет новых непрочитанных сообщений. Город насилия / Citta violenta (1970) BDRip от NovaLan

7 | 6

1.45 ГБ




Вы не можете начинать темы
Вы не можете отвечать на сообщения
Вы не можете редактировать свои сообщения
Вы не можете удалять свои сообщения
Вы не можете добавлять вложения

Перейти:  
Для Мосгорсуда, Роскомнадзора и рекламодателей: mosgorsud-torrent[собачка]yandex.ru
 Вход
ppkBB3cker v.2 © 2008-2014 @ PPK
[ Time : 0.061s | 18 Queries | GZIP : Off ]

cron