img image001 image001 image001 image001 image001 image001 image001 image001 image001 image001 image001 image001 image001 image001 image001

Planets Sun Sun Sun
Статистика раздачи
Автор: Nickolas3434 | Размер: 19.39 ГБ | Добавлен: 17 дек 2017
Раздают: 1    Качают: 2
Скачать торрент
Скачать торрент
Описание торрента

СообщениеДобавлено: 17 дек 2017 

Информация о фильме:
Жанр: Триллер, Драма, Криминал, Детектив
Режиссер: Билли Уайлдер
Актеры: Тайрон Пауэр, Марлен Дитрих, Чарльз Лотон, Эльза Ланчестер, Джон Уильямс, Генри Дэниелл, Йен Вульф, Торин Тэтчер, Норма Варден, Уна О’Коннор
Описание:
Сэр Уилфрид Робартс — тяжело больной адвокат, которому врачи запретили заниматься уголовными делами. Выполнить их рекомендации он смог только благодаря заботливой домашней медсестре мисс Плимсолл. Но когда его поверенный приводит к нему домой подозреваемого в убийстве Леонарда Воула, Робартс не может устоять и соглашается вести дело.

Производство: США, Metro-Goldwyn-Mayer, Edward Small Productions
Продолжительность: 01:56:32
Перевод: Дублированный со вставками многоголосого, профессиональный (многоголосый закадровый) Film-Prestige, любительский одноголосый закадровый.
Субтитры: Русские, английские
Возраст: 12+ (зрителям, достигшим 12 лет)
Релиз от: NNMClub
Файл:
Качество видео: BDRemux 1080p
Видео: AVC/H.264, 1920x1080, ~21 Mb/s
Аудио: 1 AC3, 2 ch, 192 kbps - Русский, дубляж со вставками многоголосого
Аудио: 2 AC3, 2 ch, 192 kbps - Русский, многоголосый (Film-Prestige)
Аудио: 3 AC3, 2 ch, 192 kbps - Русский, одноголосый
Аудио: 4 AC3, 2 ch, 192 kbps - Русский, одноголосый
Аудио: 5 AC3, 2 ch, 384 kbps - Украинский, многоголосый (Цікава ідея)
Аудио: 6 DTS-HD MA, 2 ch, 1669 kbps - Английский
Complete name : I:Witness.for.the.Prosecution.(1957).BDRemux.NNMClub.mkv
Format : Matroska
Format version : Version 2
File size : 19.4 GiB
Duration : 1 h 56 min
Overall bit rate mode : Variable
Overall bit rate : 23.8 Mb/s
Movie name : Witness for the Prosecution.(1957).BDRemux.NNMClub
Encoded date : UTC 2017-11-26 22:24:50
Writing application : mkvmerge v5.8.0 ('No Sleep / Pillow') built on Sep 2 2012 15:37:04
Writing library : libebml v1.2.3 + libmatroska v1.3.0
Video
ID : 1
Format : AVC
Format/Info : Advanced Video Codec
Format profile : High@L4.1
Format settings : CABAC / 4 Ref Frames
Format settings, CABAC : Yes
Format settings, RefFrames : 4 frames
Format settings, GOP : M=3, N=24
Codec ID : V_MPEG4/ISO/AVC
Duration : 1 h 56 min
Bit rate mode : Variable
Maximum bit rate : 35.0 Mb/s
Width : 1 920 pixels
Height : 1 080 pixels
Display aspect ratio : 16:9
Frame rate mode : Constant
Frame rate : 23.976 (24000/1001) FPS
Standard : NTSC
Color space : YUV
Chroma subsampling : 4:2:0
Bit depth : 8 bits
Scan type : Progressive
Title : Witness for the Prosecution.(1957).BDRemux
Language : English
Default : Yes
Forced : No
Color range : Limited
Color primaries : BT.709
Transfer characteristics : BT.709
Matrix coefficients : BT.709
Audio #1
ID : 2
Format : AC-3
Format/Info : Audio Coding 3
Format settings, Endianness : Big
Codec ID : A_AC3
Duration : 1 h 56 min
Bit rate mode : Constant
Bit rate : 192 kb/s
Channel(s) : 2 channels
Channel positions : Front: L R
Sampling rate : 48.0 kHz
Frame rate : 31.250 FPS (1536 SPF)
Bit depth : 16 bits
Compression mode : Lossy
Stream size : 160 MiB (1%)
Title : AC3 2.0 @ 192 kbps - Dub
Language : Russian
Service kind : Complete Main
Default : Yes
Forced : No
Audio #2
ID : 3
Format : AC-3
Format/Info : Audio Coding 3
Format settings, Endianness : Big
Codec ID : A_AC3
Duration : 1 h 56 min
Bit rate mode : Constant
Bit rate : 192 kb/s
Channel(s) : 2 channels
Channel positions : Front: L R
Sampling rate : 48.0 kHz
Frame rate : 31.250 FPS (1536 SPF)
Bit depth : 16 bits
Compression mode : Lossy
Stream size : 160 MiB (1%)
Title : AC3 2.0 @ 192 kbps - MVO, Film-Prestige
Language : Russian
Service kind : Complete Main
Default : No
Forced : No
Audio #3
ID : 4
Format : AC-3
Format/Info : Audio Coding 3
Format settings, Endianness : Big
Codec ID : A_AC3
Duration : 1 h 56 min
Bit rate mode : Constant
Bit rate : 192 kb/s
Channel(s) : 2 channels
Channel positions : Front: L R
Sampling rate : 48.0 kHz
Frame rate : 31.250 FPS (1536 SPF)
Bit depth : 16 bits
Compression mode : Lossy
Stream size : 160 MiB (1%)
Title : AC3 2.0 @ 192 kbps - VO
Language : Russian
Service kind : Complete Main
Default : No
Forced : No
Audio #4
ID : 5
Format : AC-3
Format/Info : Audio Coding 3
Format settings, Endianness : Big
Codec ID : A_AC3
Duration : 1 h 56 min
Bit rate mode : Constant
Bit rate : 192 kb/s
Channel(s) : 2 channels
Channel positions : Front: L R
Sampling rate : 48.0 kHz
Frame rate : 31.250 FPS (1536 SPF)
Bit depth : 16 bits
Compression mode : Lossy
Stream size : 160 MiB (1%)
Title : AC3 2.0 @ 192 kbps - VO
Language : Russian
Service kind : Complete Main
Default : No
Forced : No
Audio #5
ID : 6
Format : AC-3
Format/Info : Audio Coding 3
Format settings, Endianness : Big
Codec ID : A_AC3
Duration : 1 h 56 min
Bit rate mode : Constant
Bit rate : 384 kb/s
Channel(s) : 2 channels
Channel positions : Front: L R
Sampling rate : 48.0 kHz
Frame rate : 31.250 FPS (1536 SPF)
Bit depth : 16 bits
Compression mode : Lossy
Stream size : 320 MiB (2%)
Title : AC3 2.0 @ 384 kbps - MVO, Цікава ідея
Language : Ukrainian
Service kind : Complete Main
Default : No
Forced : No
Audio #6
ID : 7
Format : DTS
Format/Info : Digital Theater Systems
Format profile : MA / Core
Mode : 16
Format settings, Endianness : Big
Codec ID : A_DTS
Duration : 1 h 56 min
Bit rate mode : Variable / Constant
Bit rate : Unknown / 1 509 kb/s
Channel(s) : 2 channels
Channel positions : Front: L R
Sampling rate : 48.0 kHz
Frame rate : 93.750 FPS (512 SPF)
Bit depth : 16 bits
Compression mode : Lossless / Lossy
Title : DTS-HD MA 2.0 @ 1669 kbps - Original
Language : English
Default : No
Forced : No
Text #1
ID : 8
Format : UTF-8
Codec ID : S_TEXT/UTF8
Codec ID/Info : UTF-8 Plain Text
Language : Russian
Default : No
Forced : No
Text #2
ID : 9
Format : UTF-8
Codec ID : S_TEXT/UTF8
Codec ID/Info : UTF-8 Plain Text
Language : English
Default : No
Forced : No
Menu
00:00:00.000 : en:Chapter 1
00:01:50.819 : en:Chapter 2
00:08:43.523 : en:Chapter 3
00:18:31.569 : en:Chapter 4
00:33:15.952 : en:Chapter 5
00:49:12.491 : en:Chapter 6
00:55:27.616 : en:Chapter 7
01:11:22.820 : en:Chapter 8
01:27:46.261 : en:Chapter 9
01:48:24.873 : en:Chapter 10
01:55:59.703 : en:Chapter 11



   Похожие торренты   Торрент   Размер 
В этой теме нет новых непрочитанных сообщений. Свидетель обвинения / Witness for the Prosecution (1957) DVDRip-AVC

64 | 2

1.36 ГБ

В этой теме нет новых непрочитанных сообщений. Свидетель обвинения / Witness for the Prosecution (1957) BDRip 720p | P, L1

27 | 4

7.85 ГБ

В этой теме нет новых непрочитанных сообщений. Свидетель обвинения / Witness for the Prosecution (1957) BDRip от MediaClub | КПК

15 | 0

530.5 МБ

В этой теме нет новых непрочитанных сообщений. Свидетель обвинения / The Witness for the Prosecution [01x01 из 02] (2016) HDTV 1080p | ViruseProject

6 | 0

2.26 ГБ

В этой теме нет новых непрочитанных сообщений. Свидетель обвинения / The Witness for the Prosecution [01x01 из 02] (2016) HDTVRip | ViruseProject

0 | 0

984.16 МБ

В этой теме нет новых непрочитанных сообщений. Свидетель / Witness (1985) BDRemux 1080p от MediaClub | P, P2, A

17 | 32

32.46 ГБ

В этой теме нет новых непрочитанных сообщений. Безмолвный свидетель / Немой свидетель / Silent Witness [21x01-02 из 10] (2018) HDTVRip 1080p | ColdFilm

0 | 0

3.46 ГБ




Вы не можете начинать темы
Вы не можете отвечать на сообщения
Вы не можете редактировать свои сообщения
Вы не можете удалять свои сообщения
Вы не можете добавлять вложения

Перейти:  
Для Мосгорсуда, Роскомнадзора и рекламодателей: mosgorsud-torrent[собачка]yandex.ru
 Вход
ppkBB3cker v.2 © 2008-2014 @ PPK
[ Time : 0.039s | 19 Queries | GZIP : Off ]

cron