img image001 image001 image001 image001 image001 image001 image001 image001 image001 image001 image001 image001 image001 image001 image001

Planets Sun Sun Sun
Статистика раздачи
Автор: Nickolas3434 | Размер: 45.73 ГБ | Добавлен: 17 дек 2017
Раздают: 5    Качают: 5
Скачать торрент
Скачать торрент
Описание торрента

СообщениеДобавлено: 17 дек 2017 

Производство: США, Великобритания / Marvel Studios Inc.
Жанр: фантастика, боевик, приключения
Режиссер: Мэттью Вон
Продюсер: Грегори Гудман, Саймон Кинберг, Лорен Шулер Доннер
Актеры: Джеймс МакЭвой, Майкл Фассбендер, Кевин Бейкон, Роуз Бирн, Дженнифер Лоуренс, Джануари Джонс, Николас Холт, Лукас Тилл, Калеб Лэндри Джонс, Зои Кравиц
Описание:
Фильм расскажет о том, как сформировались профессор Ксавьер и Магнито, о процессе основания школы профессора для детей-мутантов и, наконец, о том, что же произошло между двумя закадычными друзьями и почему они расстались.

Релиз от: BLUEBIRD
Продолжительность: 02:11:42
Качество: UHD BDRemux (HDR)
Перевод: Дублированный (Лицензия R5), Авторский (одноголосый, закадровый) (А. Гаврилов, Ю. Сербин)
Субтитры: Английские, Русские (Full-length, Forced), Украинские (Full-length, Forced)
Видео: HEVC/H.265, 3840x2160p, (16:9), 36.4 Mb/s, 23.976 fps
Аудио: DTS, 6 ch, 768 kbps - Русский, Дубляж
Аудио: AC3, 6 ch, 448 kbps - Украинский
Аудио: DTS-HD MA, 6 ch, 3989 kbps - Русский, А. Гаврилов
Аудио: DTS-HD MA, 6 ch, 4005 kbps - Русский, Ю. Сербин
Аудио: DTS-HD MA, 6 ch, 3967 kbps - Английский
General
Unique ID : 228461001765394490129428458087071143060 (0xABDFFD0A90C959F3808B0286FAA8D494)
Complete name : X-MEN_FIRST_CLASS_BD_UHD_HDR_REMUX-BLUEBIRD.mkv
Format : Matroska
Format version : Version 4 / Version 2
File size : 45.7 GiB
Duration : 2 h 11 min
Overall bit rate : 49.7 Mb/s
Movie name : X-MEN_FIRST_CLASS_BD_UHD_HDR_REMUX-BLUEBIRD
Encoded date : UTC 2017-11-09 18:10:58
Writing application : mkvmerge v16.0.0 ('Protest') 64-bit
Writing library : libebml v1.3.5 + libmatroska v1.4.8
Cover : Yes
Attachments : cover2.png
Video
ID : 1
Format : HEVC
Format/Info : High Efficiency Video Coding
Format profile : Main 10@L5.1@High
Codec ID : V_MPEGH/ISO/HEVC
Duration : 2 h 11 min
Bit rate : 36.4 Mb/s
Width : 3 840 pixels
Height : 2 160 pixels
Display aspect ratio : 16:9
Frame rate mode : Constant
Frame rate : 23.976 (24000/1001) FPS
Color space : YUV
Chroma subsampling : 4:2:0 (Type 2)
Bit depth : 10 bits
Bits/(Pixel*Frame) : 0.183
Stream size : 33.5 GiB (73%)
Title : X-MEN_FIRST_CLASS_BD_UHD_HDR_REMUX-BLUEBIRD
Writing library : ATEME Titan File 3.7.6 (4.7.6.101)
Default : Yes
Forced : No
Color range : Limited
Color primaries : BT.2020
Transfer characteristics : SMPTE ST 2084
Matrix coefficients : BT.2020 non-constant
Mastering display color primaries : R: x=0.680000 y=0.320000, G: x=0.265000 y=0.690000, B: x=0.150000 y=0.060000, White point: x=0.312700 y=0.329000
Mastering display luminance : min: 0.0000 cd/m2, max: 1000.0000 cd/m2
Audio #1
ID : 2
Format : DTS
Format/Info : Digital Theater Systems
Mode : 16
Format settings, Endianness : Big
Codec ID : A_DTS
Duration : 2 h 11 min
Bit rate mode : Constant
Bit rate : 768 kb/s
Channel(s) : 6 channels
Channel positions : Front: L C R, Side: L R, LFE
Sampling rate : 48.0 kHz
Frame rate : 93.750 FPS (512 SPF)
Bit depth : 24 bits
Compression mode : Lossy
Stream size : 724 MiB (2%)
Title : [DUB] DTS 5.1 @ 768 kbps
Language : Russian
Default : Yes
Forced : No
Audio #2
ID : 3
Format : AC-3
Format/Info : Audio Coding 3
Format settings, Endianness : Big
Codec ID : A_AC3
Duration : 2 h 11 min
Bit rate mode : Constant
Bit rate : 448 kb/s
Channel(s) : 6 channels
Channel positions : Front: L C R, Side: L R, LFE
Sampling rate : 48.0 kHz
Frame rate : 31.250 FPS (1536 SPF)
Bit depth : 16 bits
Compression mode : Lossy
Stream size : 422 MiB (1%)
Title : [DUB] DD 5.1 @ 448 kbps
Language : Ukrainian
Service kind : Complete Main
Default : No
Forced : No
Audio #3
ID : 4
Format : DTS
Format/Info : Digital Theater Systems
Format profile : MA / Core
Mode : 16
Format settings, Endianness : Big
Codec ID : A_DTS
Duration : 2 h 11 min
Bit rate mode : Variable / Constant
Bit rate : 3 989 kb/s / 1 509 kb/s
Channel(s) : 6 channels
Channel positions : Front: L C R, Side: L R, LFE
Sampling rate : 48.0 kHz
Frame rate : 93.750 FPS (512 SPF)
Bit depth : 24 bits
Compression mode : Lossless / Lossy
Stream size : 3.67 GiB (8%)
Title : [VO] DTS-HD MA 5.1 @ 3990 kbps (A. Gavrilov)
Language : Russian
Default : No
Forced : No
Audio #4
ID : 5
Format : DTS
Format/Info : Digital Theater Systems
Format profile : MA / Core
Mode : 16
Format settings, Endianness : Big
Codec ID : A_DTS
Duration : 2 h 11 min
Bit rate mode : Variable / Constant
Bit rate : 4 005 kb/s / 1 509 kb/s
Channel(s) : 6 channels
Channel positions : Front: L C R, Side: L R, LFE
Sampling rate : 48.0 kHz
Frame rate : 93.750 FPS (512 SPF)
Bit depth : 24 bits
Compression mode : Lossless / Lossy
Stream size : 3.68 GiB (8%)
Title : [VO] DTS-HD MA 5.1 @ 4006 kbps (Y. Serbin)
Language : Russian
Default : No
Forced : No
Audio #5
ID : 6
Format : DTS
Format/Info : Digital Theater Systems
Format profile : MA / Core
Mode : 16
Format settings, Endianness : Big
Codec ID : A_DTS
Duration : 2 h 11 min
Bit rate mode : Variable / Constant
Bit rate : 3 967 kb/s / 1 509 kb/s
Channel(s) : 6 channels
Channel positions : Front: L C R, Side: L R, LFE
Sampling rate : 48.0 kHz
Frame rate : 93.750 FPS (512 SPF)
Bit depth : 24 bits
Compression mode : Lossless / Lossy
Stream size : 3.65 GiB (8%)
Title : [ORIGINAL] DTS-HD MA 5.1 @ 3967 kbps
Language : English
Default : No
Forced : No
Text #1
ID : 7
Format : PGS
Codec ID : S_HDMV/PGS
Codec ID/Info : Picture based subtitle format used on BDs/HD-DVDs
Duration : 2 h 3 min
Bit rate : 41.8 kb/s
Count of elements : 2838
Stream size : 36.8 MiB (0%)
Title : Full-length
Language : Russian
Default : No
Forced : No
Text #2
ID : 8
Format : PGS
Codec ID : S_HDMV/PGS
Codec ID/Info : Picture based subtitle format used on BDs/HD-DVDs
Duration : 2 h 3 min
Bit rate : 46.8 kb/s
Count of elements : 2858
Stream size : 41.3 MiB (0%)
Title : Full-length
Language : Ukrainian
Default : No
Forced : No
Text #3
ID : 9
Format : PGS
Codec ID : S_HDMV/PGS
Codec ID/Info : Picture based subtitle format used on BDs/HD-DVDs
Duration : 2 h 11 min
Bit rate : 31.9 kb/s
Count of elements : 3202
Stream size : 30.1 MiB (0%)
Title : Full-length
Language : English
Default : No
Forced : No
Text #4
ID : 10
Format : PGS
Codec ID : S_HDMV/PGS
Codec ID/Info : Picture based subtitle format used on BDs/HD-DVDs
Duration : 1 h 32 min
Bit rate : 3 961 b/s
Count of elements : 234
Stream size : 2.63 MiB (0%)
Title : Forced
Language : Russian
Default : Yes
Forced : Yes
Text #5
ID : 11
Format : PGS
Codec ID : S_HDMV/PGS
Codec ID/Info : Picture based subtitle format used on BDs/HD-DVDs
Duration : 1 h 32 min
Bit rate : 4 034 b/s
Count of elements : 234
Stream size : 2.67 MiB (0%)
Title : Forced
Language : Ukrainian
Default : No
Forced : No
Menu
00:00:00.000 : en:Chapter 1
00:04:21.552 : en:Chapter 2
00:09:33.155 : en:Chapter 3
00:14:03.425 : en:Chapter 4
00:16:08.175 : en:Chapter 5
00:22:10.829 : en:Chapter 6
00:27:11.046 : en:Chapter 7
00:28:46.349 : en:Chapter 8
00:31:32.890 : en:Chapter 9
00:36:07.540 : en:Chapter 10
00:40:12.660 : en:Chapter 11
00:44:16.487 : en:Chapter 12
00:50:05.752 : en:Chapter 13
00:54:00.862 : en:Chapter 14
01:01:07.413 : en:Chapter 15
01:08:17.927 : en:Chapter 16
01:11:51.098 : en:Chapter 17
01:14:06.525 : en:Chapter 18
01:20:07.052 : en:Chapter 19
01:23:43.226 : en:Chapter 20
01:27:35.833 : en:Chapter 21
01:28:51.242 : en:Chapter 22
01:31:24.979 : en:Chapter 23
01:33:33.899 : en:Chapter 24
01:37:54.410 : en:Chapter 25
01:39:55.197 : en:Chapter 26
01:43:37.961 : en:Chapter 27
01:47:44.165 : en:Chapter 28
01:52:38.459 : en:Chapter 29
01:56:44.622 : en:Chapter 30
02:01:26.696 : en:Chapter 31
02:04:24.248 : en:Chapter 32

Скриншоты:

   Похожие торренты   Торрент   Размер 
В этой теме нет новых непрочитанных сообщений. Люди Икс: Апокалипсис / X-Men: Apocalypse (2016) UHD BDRemux 2160p от ExKinoRay | 4K | HDR | Лицензия

17 | 8

41.21 ГБ

В этой теме нет новых непрочитанных сообщений. Люди Икс: Первый класс / X-Men: First Class (2011) BDRip-HEVC 1080p от RIPS CLUB | D

0 | 0

9.29 ГБ

В этой теме нет новых непрочитанных сообщений. Люди Икс: Тёмный Феникс / Dark Phoenix (2019) UHD BDRemux 2160p | 4K | HDR | HDR10+ | Dolby Vision Profile 8 | Лицензия

0 | 0

45.14 ГБ

В этой теме нет новых непрочитанных сообщений. Люди в чёрном 2 / Men in Black II (2002) UHD BDRemux 2160p от MediaClub | 4K | HDR | D, P, A

2 | 0

44.51 ГБ

В этой теме нет новых непрочитанных сообщений. Люди в черном / Men in Black (1997) UHD BDRemux 2160p от MediaClub | 4K | HDR | D, P, A

2 | 0

43.65 ГБ

В этой теме нет новых непрочитанных сообщений. Люди в чёрном 3 / Men in Black 3 (2012) UHD BDRemux 2160p от MediaClub | 4K | HDR | D, A

11 | 4

42.94 ГБ

В этой теме нет новых непрочитанных сообщений. Новые мутанты / Люди Икс: Новые мутанты / The New Mutants (2020) UHD BDRemux 2160p от селезень | 4K | HDR | iTunes

0 | 0

45.5 ГБ




Вы не можете начинать темы
Вы не можете отвечать на сообщения
Вы не можете редактировать свои сообщения
Вы не можете удалять свои сообщения
Вы не можете добавлять вложения

Перейти:  
Контактная информация: rstracker[пёсик]yandex.ru
cron
 Вход
ppkBB3cker v.2 © 2008-2014 @ PPK
[ Time : 0.032s | 20 Queries | GZIP : Off ]

cron