img image001 image001 image001 image001 image001 image001 image001 image001 image001 image001 image001 image001 image001 image001 image001

Planets Sun Sun Sun
Статистика раздачи
Автор: Nickolas3434 | Размер: 744.58 МБ | Добавлен: 17 дек 2017
Раздают: 50    Качают: 0
Скачать торрент
Скачать торрент
Описание торрента

СообщениеДобавлено: 17 дек 2017 

Информация о фильме
Название: Смертный приговор
Оригинальное название: Death Sentence
Год выхода: 2007
Жанр: Боевик, триллер, криминал
Режиссер: Джеймс Ван
В ролях: Кевин Бейкон, Джон Гудман, Келли Престон, Гаррет Хедланд, Йорго Констанстин, Айша Тайлер, Мэт О'Лири, Ли Уоннелл, Стюарт Лэфферти, Джордан Гарретт, Джон Гудман, Эди Гатеги, Гектор Руис
О фильме :
Ник — менеджер крупной компании, обходительный и вежливый человек с репутацией отличного семьянина. Его жизнь была прекрасна, до тех пор, пока однажды он не стал свидетелем того, что полностью и бесповоротно сделало его иным. Поселившаяся в нём с той ужасной ночи ярость приводит его к твердой уверенности, что для защиты своей семьи он не остановится ни перед чем.

Страна: США
Студия: 20th Century Fox Film Corporation, Baldwin Entertainment Group, Brass Hat Films
Продолжительность: 01:45:30
Перевод: Профессиональный (многоголосый, закадровый) Киномания
Файл
Формат: MKV
Качество: HDRip-AVC
Видео: MPEG-4 AVC, 768x320, ~ 910 Кбит/с
Аудио: AAC-LC, 2 ch, ~ 76 Кбит/с
Субтитры: Русские, английские
Общее
Уникальный идентификатор : 232840157574165377685743964965096409944 (0xAF2B62179CB59A7C911744FFA31C4B58)
Полное имя : D:MOVIESDeath.Sentence.2007.ExKinoRay.mkv
Формат : Matroska
Версия формата : Version 4 / Version 2
Размер файла : 745 Мбайт
Продолжительность : 1 ч. 45 м.
Общий поток : 987 Кбит/сек
Дата кодирования : UTC 2017-12-15 06:23:24
Программа кодирования : mkvmerge v15.0.0 ('Duel with the Devil') 64-bit
Библиотека кодирования : libebml v1.3.5 + libmatroska v1.4.5
Видео
Идентификатор : 1
Формат : AVC
Формат/Информация : Advanced Video Codec
Профиль формата : High@L4.1
Параметр CABAC формата : Да
Параметр RefFrames формата : 10 кадров
Идентификатор кодека : V_MPEG4/ISO/AVC
Продолжительность : 1 ч. 45 м.
Битрейт : 910 Кбит/сек
Ширина : 768 пикселей
Высота : 320 пикселей
Соотношение сторон : 2,40:1
Режим частоты кадров : Постоянный
Частота кадров : 23,976 (24000/1001) кадра/сек
Цветовое пространство : YUV
Субдискретизация насыщенности : 4:2:0
Битовая глубина : 8 бит
Тип развёртки : Прогрессивная
Бит/(Пиксели*Кадры) : 0.154
Размер потока : 685 Мбайт (92%)
Библиотека кодирования : x264 core 152 r2851kMod ba24899
Настройки программы : cabac=1 / ref=10 / deblock=1:-3:-3 / analyse=0x3:0x133 / me=umh / subme=11 / psy=1 / fade_compensate=0.00 / psy_rd=1.00:0.20 / mixed_ref=1 / me_range=32 / chroma_me=1 / trellis=2 / 8x8dct=1 / cqm=0 / deadzone=21,11 / fast_pskip=0 / chroma_qp_offset=-3 / threads=6 / lookahead_threads=1 / sliced_threads=0 / nr=0 / decimate=0 / interlaced=0 / bluray_compat=0 / constrained_intra=0 / bframes=10 / b_pyramid=2 / b_adapt=2 / b_bias=0 / direct=3 / weightb=1 / open_gop=0 / weightp=2 / keyint=240 / keyint_min=23 / scenecut=40 / intra_refresh=0 / rc_lookahead=40 / rc=2pass / mbtree=1 / bitrate=910 / ratetol=1.0 / qcomp=0.60 / qpmin=0 / qpmax=69 / qpstep=4 / cplxblur=20.0 / qblur=0.5 / vbv_maxrate=50000 / vbv_bufsize=62500 / nal_hrd=none / filler=0 / ip_ratio=1.40 / aq=3:1.00
Default : Да
Forced : Нет
Аудио
Идентификатор : 2
Формат : AAC
Формат/Информация : Advanced Audio Codec
Профиль формата : LC
Идентификатор кодека : A_AAC
Продолжительность : 1 ч. 45 м.
Битрейт : 76,0 Кбит/сек
Каналы : 2 канала
Расположение каналов : Front: L R
Частота : 48,0 КГц
Частота кадров : 46,875 кадров/сек (1024 SPF)
Метод сжатия : С потерями
Задержка видео : 9 мс.
Размер потока : 57,3 Мбайт (8%)
Язык : Russian
Default : Да
Forced : Нет
Текст #1
Идентификатор : 3
Формат : UTF-8
Идентификатор кодека : S_TEXT/UTF8
Идентификатор кодека/Информация : UTF-8 Plain Text
Продолжительность : 1 ч. 39 м.
Битрейт : 57 бит/сек
ElementCount : 851
Размер потока : 42,3 Кбайт (0%)
Заголовок : Русские
Язык : Russian
Default : Нет
Forced : Нет
Текст #2
Идентификатор : 4
Формат : UTF-8
Идентификатор кодека : S_TEXT/UTF8
Идентификатор кодека/Информация : UTF-8 Plain Text
Продолжительность : 1 ч. 39 м.
Битрейт : 36 бит/сек
ElementCount : 1066
Размер потока : 27,0 Кбайт (0%)
Заголовок : Английские
Язык : English
Default : Нет
Forced : Нет



Релиз от:



   Похожие торренты   Торрент   Размер 
В этой теме нет новых непрочитанных сообщений. Смертный приговор / Death Sentence (2007) HDRip

11 | 1

745.61 МБ

В этой теме нет новых непрочитанных сообщений. Смертный приговор / Death Sentence (2007) BDRip-AVC | P2

4 | 1

2.19 ГБ

В этой теме нет новых непрочитанных сообщений. Смертный приговор / Death Sentence (2007) BDRip 1080p

10 | 7

7.95 ГБ

В этой теме нет новых непрочитанных сообщений. Смертный приговор / Death Sentence (2007) BDRip от Rulya74 | P2. A

20 | 10

1.45 ГБ

В этой теме нет новых непрочитанных сообщений. Смертный приговор / Death Sentence (2007) BDRemux 1080p

149 | 21

15.33 ГБ

В этой теме нет новых непрочитанных сообщений. Смертный приговор / Death Sentence (2007) BDRip от HQCLUB

17 | 4

2.84 ГБ

В этой теме нет новых непрочитанных сообщений. Смертный приговор / Death Sentence (2007) BDRip от HQ-ViDEO

24 | 7

1.74 ГБ




Вы не можете начинать темы
Вы не можете отвечать на сообщения
Вы не можете редактировать свои сообщения
Вы не можете удалять свои сообщения
Вы не можете добавлять вложения

Перейти:  
Для Мосгорсуда, Роскомнадзора и рекламодателей: mosgorsud-torrent[собачка]yandex.ru
 Вход
ppkBB3cker v.2 © 2008-2014 @ PPK
[ Time : 0.060s | 19 Queries | GZIP : Off ]

cron