img image001 image001 image001 image001 image001 image001 image001 image001 image001 image001 image001 image001 image001 image001 image001 image001

Planets Sun Sun Sun
Статистика раздачи
Автор: Nickolas3434 | Размер: 10.63 ГБ | Добавлен: 17 дек 2017
Раздают: 6    Качают: 0
Скачать торрент
Скачать торрент
Описание торрента

СообщениеДобавлено: 17 дек 2017 

Информация о фильме
Название: Казанова
Оригинальное название: Casanova
Год выпуска: 2005
Жанр: драма, мелодрама, комедия, приключения
Режиссер: Лассе Халльстрём
В ролях: Хит Леджер, Сиенна Миллер, Джереми Айронс, Оливер Платт, Лена Олин, Чарли Кокс, Натали Дормер, Омид Джалили, Стефен Грейф, Кен Стотт, Хелен МакКрори, Ли Лосон
О фильме:
Впервые легендарный Казанова встретил достойную соперницу в амурных делах - венецианскую красавицу Франческу. Ей удаётся неслыханное: устоять перед неотразимыми чарами знаменитого соблазнителя... Ему приходится применить весь арсенал приёмов, рисковать своей жизнью и репутацией ради её благосклонности...

MPAA: R - Лицам до 17 лет обязательно присутствие взрослого
Страна: США
Студия: Gondola Pictures Ltd., Power, The Mark Gordon Company, Touchstone Pictures
Продолжительность: 01:51:47
Перевод: Профессиональный (дублированный) R5
Файл
Качество: WEB-DL 1080p | Open Matte
Формат: Matroska
Видео: 1920x1080 at 23.976 fps, MPEG-4 AVC, ~11000 kbps avg
Аудио#1: Russian: 48 kHz, AC3, 3/2 (L,C,R,l,r) + LFE ch, ~384 kbps avg |Дубляж, R5|
Аудио#2: English: 48 kHz, DTS, 3/2 (L,C,R,l,r) + LFE ch, ~1509 kbps avg
Аудио#3: English: 48 kHz, EAC3, 3/2 (L,C,R,l,r) + LFE ch, ~640 kbps avg
Субтитры: Russian, English, English (SDH)
***Исходник видео - Amazon.
***Релиз - spartanec163.
В отличие от многих других персонажей фильма, Джакомо Казанова (1725-1798) является личностью исторической. Франческа Бруни, например, является персонажем выдуманным. Впервые она появилась на экране в фильме Нормана З. МакЛеода «Великая ночь Казановы» (1954) в исполнении Джоан Фонтейн (1917-2013).
Некоторые элементы сценария позаимствованы в «Венецианском купце» (1596) Уильяма Шекспира (1564-1616). Так, например, Франческа Бруни переодевается мужчиной, чтобы присутствовать на заседании суда. В фильме «Казанова» сыграли Джереми Айронс и Чарли Кокс, участники актёрского состава фильма Майкла Редфорда «Венецианский купец» (2004).
[*]Убегая от инквизиции в начале фильма, Казанова запрыгивает через окно в здание Венецианского университета. Такого университета никогда не существовало. В действительности актёр попал через окно в здание Teatro Olimpico - это театр в Виченце, спроектированный архитектором Андреа Палладио (1508-1580) на исходе эпохи Возрождения. Достроенный учеником мастера, театр открылся 3 марта 1585 года и послужил прообразом театров по всему миру.
Общее
Уникальный идентификатор : 175721858437574711302793854985507920512 (0x8432CC8506E576DB83006A5F8AB75A80)
Полное имя : Casanova.2005.Open.Matte.1080p.WEB-DL.Rus.Eng.mkv
Формат : Matroska
Версия формата : Version 4 / Version 2
Размер файла : 10,6 Гбайт
Продолжительность : 1 ч. 51 м.
Режим общего битрейта : Переменный
Общий поток : 13,6 Мбит/сек
Название фильма : Casanova.2005.Open.Matte.1080p.WEB-DL.Rus.Eng-spartanec163
Дата кодирования : UTC 2017-12-15 09:45:07
Программа кодирования : mkvmerge v8.3.0 ('Over the Horizon') 64bit
Библиотека кодирования : libebml v1.3.1 + libmatroska v1.4.2
Видео
Идентификатор : 1
Формат : AVC
Формат/Информация : Advanced Video Codec
Профиль формата : High@L4.0
Параметр CABAC формата : Да
Параметр ReFrames формата : 4 кадра
Идентификатор кодека : V_MPEG4/ISO/AVC
Продолжительность : 1 ч. 51 м.
Вид битрейта : Переменный
Битрейт : 10,8 Мбит/сек
Максимальный битрейт : 15,0 Мбит/сек
Ширина : 1920 пикселей
Высота : 1080 пикселей
Соотношение сторон : 16:9
Режим частоты кадров : Постоянный
Частота кадров : 23,976 кадра/сек
Цветовое пространство : YUV
Субдискретизация насыщенности : 4:2:0
Битовая глубина : 8 бит
Тип развёртки : Прогрессивная
Бит/(Пиксели*Кадры) : 0.217
Размер потока : 8,44 Гбайт (79%)
Заголовок : WEB-DL 1080p (Amazon)
Язык : English
Default : Да
Forced : Нет
Основные цвета : BT.709
Характеристики трансфера : BT.709
Коэффициенты матрицы : BT.709
Аудио #1
Идентификатор : 2
Формат : AC-3
Формат/Информация : Audio Coding 3
Расширение режима : CM (complete main)
Параметр Endianness формата : Big
Идентификатор кодека : A_AC3
Продолжительность : 1 ч. 51 м.
Вид битрейта : Постоянный
Битрейт : 384 Кбит/сек
Каналы : 6 каналов
Расположение каналов : Front: L C R, Side: L R, LFE
Частота : 48,0 КГц
Битовая глубина : 16 бит
Метод сжатия : С потерями
Размер потока : 307 Мбайт (3%)
Заголовок : AC3 5.1 384Kbps (Дубляж - R5)
Язык : Russian
Default : Да
Forced : Нет
Аудио #2
Идентификатор : 3
Формат : DTS
Формат/Информация : Digital Theater Systems
Режим : 16
Параметр Endianness формата : Big
Идентификатор кодека : A_DTS
Продолжительность : 1 ч. 51 м.
Вид битрейта : Постоянный
Битрейт : 1509 Кбит/сек
Каналы : 6 каналов
Расположение каналов : Front: L C R, Side: L R, LFE
Частота : 48,0 КГц
Битовая глубина : 24 бит
Метод сжатия : С потерями
Размер потока : 1,18 Гбайт (11%)
Заголовок : DTS 5.1 1509Kbps (Оригинал - BluRay)
Язык : English
Default : Нет
Forced : Нет
Аудио #3
Идентификатор : 4
Формат : E-AC-3
Формат/Информация : Audio Coding 3
Параметр Endianness формата : Big
Идентификатор кодека : A_EAC3
Продолжительность : 1 ч. 51 м.
Вид битрейта : Постоянный
Битрейт : 640 Кбит/сек
Каналы : 6 каналов
Расположение каналов : Front: L C R, Side: L R, LFE
Частота : 48,0 КГц
Метод сжатия : С потерями
Размер потока : 512 Мбайт (5%)
Заголовок : E-AC3 5.1 640Kbps (Оригинал - Amazon)
Язык : English
Default : Нет
Forced : Нет
Текст #1
Идентификатор : 5
Формат : UTF-8
Идентификатор кодека : S_TEXT/UTF8
Идентификатор кодека/Информация : UTF-8 Plain Text
Язык : Russian
Default : Нет
Forced : Нет
Текст #2
Идентификатор : 6
Формат : UTF-8
Идентификатор кодека : S_TEXT/UTF8
Идентификатор кодека/Информация : UTF-8 Plain Text
Язык : English
Default : Нет
Forced : Нет
Текст #3
Идентификатор : 7
Формат : UTF-8
Идентификатор кодека : S_TEXT/UTF8
Идентификатор кодека/Информация : UTF-8 Plain Text
Заголовок : SDH, Amazon
Язык : English
Default : Нет
Forced : Нет



   Похожие торренты   Торрент   Размер 
В этой теме нет новых непрочитанных сообщений. Казанова / Casanova (2005) WEB-DLRip 720p от k.e.n & MegaPeer | D | Open Matte

1 | 0

4.37 ГБ

В этой теме нет новых непрочитанных сообщений. Казанова / Casanova (2005) BDRip 1080p

66 | 58

13.26 ГБ

В этой теме нет новых непрочитанных сообщений. Казанова / Casanova (2005) BDRip от HQ-ViDEO

22 | 2

2.18 ГБ

В этой теме нет новых непрочитанных сообщений. 13 женщин для Казановы / Казанова и компания / 13 femmes pour Casanova / Casanova & Co. (1977) DVDRip

377 | 120

1.35 ГБ

В этой теме нет новых непрочитанных сообщений. 13 женщин для Казановы / Казанова и компания / 13 femmes pour Casanova / Casanova & Co. (1977) DVDRip от KinoRay & Sheikn | A

617 | 29

1.45 ГБ

В этой теме нет новых непрочитанных сообщений. Казанова 70 / Casanova '70 (1965) BDRip 1080p | P2

60 | 20

10.44 ГБ

В этой теме нет новых непрочитанных сообщений. Морпехи / Jarhead (2005) WEB-DL 1080p | D, A | Open Matte

3 | 2

14 ГБ




Вы не можете начинать темы
Вы не можете отвечать на сообщения
Вы не можете редактировать свои сообщения
Вы не можете удалять свои сообщения
Вы не можете добавлять вложения

Перейти:  
 Вход
ppkBB3cker v.2 © 2008-2014 @ PPK
[ Time : 0.037s | 19 Queries | GZIP : Off ]

cron