img image001 image001 image001 image001 image001 image001 image001 image001 image001 image001 image001 image001 image001 image001 image001

Planets Sun Sun Sun
Статистика раздачи
Автор: Nickolas3434 | Размер: 1.46 ГБ | Добавлен: 17 дек 2017
Раздают: 26    Качают: 1
Скачать торрент
Скачать торрент
Описание торрента

СообщениеДобавлено: 17 дек 2017 

Воскрешение / Resurrección
Страна: Аргентина
Производство: Buffalo Films, Cinemagroup
Год выпуска: 2015
Жанр: ужасы
Продолжительность: 01:42:08
Режиссер: Гонсало Кальзада
Автор сценария: Гонсало Кальзада
В ролях: Лола Ахумада, Диего Алонсо, Патрисио Контрерас, Сильвана Ди Санцо, Ана Фонтан, Фернандо Гонзалес Оубинья, Адриан Наварро
Описание: Аргентина, 1871 год. Во время эпидемии жёлтой лихорадки молодой священник едет в Буэнос-Айрес, чтобы помогать больным людям...

Перевод: Авторский (одноголосый, закадровый) | Андрей Дольский
Субтитры: нет

Качество: WEB-DLRip | исходник Resurrection.2015.1080p.NF.WEB-DL.DD5.1.x264-QOQ
Формат: AVI
Видео кодек: XviD
Аудио кодек: AC3
Видео: 720x304 (2.35:1), 24.000 fps, XviD build 67 ~1 271 kbps avg
Аудио №1: 48.0 kHz, AC3 Dolby Digital, 3/2 (L,C,R,l,r) + LFE ch, ~384 kbps | RUS
Аудио №2: 48.0 kHz, AC3 Dolby Digital, 3/2 (L,C,R,l,r) + LFE ch, ~384 kbps | SPA
Дата премьеры (мир): 20 ноября 2015

Релиз от: ylnian
General
Полное имя : Resurreccion.2015.WEB-DLRip-ylnian.avi
Формат : AVI
Формат/Информация : Audio Video Interleave
Размер файла : 1,46 Гбайт
Продолжительность : 1 ч. 42 м.
Общий поток : 2053 Кбит/сек
Программа кодирования : VirtualDubMod 1.5.10.2 (build 2540/release)
Библиотека кодирования : VirtualDubMod build 2540/release
Видео
Идентификатор : 0
Формат : MPEG-4 Visual
Профиль формата : Advanced Simple@L5
Настройки формата : BVOP1
Параметр BVOP формата : 1
Параметр QPel формата : Нет
Параметр GMC формата : Без точки перехода
Параметр матрицы формата : Default (MPEG)
Идентификатор кодека : XVID
Идентификатор кодека/Подсказка : XviD
Продолжительность : 1 ч. 42 м.
Битрейт : 1271 Кбит/сек
Ширина : 720 пикселей
Высота : 304 пикселя
Соотношение сторон : 2,35:1
Частота кадров : 24,000 кадра/сек
Цветовое пространство : YUV
Субдискретизация насыщенности : 4:2:0
Битовая глубина : 8 бит
Тип развёртки : Прогрессивная
Метод сжатия : С потерями
Бит/(Пиксели*Кадры) : 0.242
Размер потока : 929 Мбайт (62%)
Библиотека кодирования : XviD 67
Аудио #1
Идентификатор : 1
Формат : AC-3
Формат/Информация : Audio Coding 3
Идентификатор кодека : 2000
Продолжительность : 1 ч. 42 м.
Вид битрейта : Постоянный
Битрейт : 384 Кбит/сек
Каналы : 6 каналов
Расположение каналов : Front: L C R, Side: L R, LFE
Частота : 48,0 КГц
Частота кадров : 31,250 кадров/сек (1536 SPF)
Битовая глубина : 16 бит
Метод сжатия : С потерями
Размер потока : 281 Мбайт (19%)
Выравнивание : Разделение по промежуткам
Продолжительность промежутка : 42 мс. (1,00 видеокадр)
Время предзагрузки промежутка : 500 мс.
Заголовок : RUS - AVO - Dolskiy
Аудио #2
Идентификатор : 2
Формат : AC-3
Формат/Информация : Audio Coding 3
Идентификатор кодека : 2000
Продолжительность : 1 ч. 42 м.
Вид битрейта : Постоянный
Битрейт : 384 Кбит/сек
Каналы : 6 каналов
Расположение каналов : Front: L C R, Side: L R, LFE
Частота : 48,0 КГц
Частота кадров : 31,250 кадров/сек (1536 SPF)
Битовая глубина : 16 бит
Метод сжатия : С потерями
Размер потока : 281 Мбайт (19%)
Выравнивание : Разделение по промежуткам
Продолжительность промежутка : 42 мс. (1,00 видеокадр)
Время предзагрузки промежутка : 500 мс.
Заголовок : Original SPA



   Похожие торренты   Торрент   Размер 
В этой теме нет новых непрочитанных сообщений. Воскрешение / Resurrección (2015) WEB-DL 1080p | А

21 | 0

3.03 ГБ

В этой теме нет новых непрочитанных сообщений. Воскрешение / Resurrection [S01-02] (2014-2015) WEB-DLRip | NewStudio

17 | 17

11.28 ГБ

В этой теме нет новых непрочитанных сообщений. Воскрешение / Resurrection [02х01-13 из 13] (2015) WEB-DLRip-AVC от ExKinoRay | NewStudio

27 | 11

10.8 ГБ

В этой теме нет новых непрочитанных сообщений. Воскрешение / Resurrection [S01-02] (2014-2015) WEB-DLRip от Generalfilm | КПК | NewStudio

17 | 7

3.93 ГБ

В этой теме нет новых непрочитанных сообщений. Воскрешение / Resurrection [S02] (2014) WEB-DLRip | Невафильм

5 | 6

7.02 ГБ

В этой теме нет новых непрочитанных сообщений. Воскрешение / Resurrection [S01] (2014) WEB-DLRip | D | Невафильм

21 | 13

5.42 ГБ

В этой теме нет новых непрочитанных сообщений. Воскрешение / Resurrection [S01] (2014) WEB-DLRip | NewStudio

47 | 18

4.3 ГБ




Вы не можете начинать темы
Вы не можете отвечать на сообщения
Вы не можете редактировать свои сообщения
Вы не можете удалять свои сообщения
Вы не можете добавлять вложения

Перейти:  
Для Мосгорсуда, Роскомнадзора и рекламодателей: mosgorsud-torrent[собачка]yandex.ru
 Вход
ppkBB3cker v.2 © 2008-2014 @ PPK
[ Time : 2.416s | 18 Queries | GZIP : Off ]

cron