img image001 image001 image001 image001 image001 image001 image001 image001 image001 image001 image001 image001 image001 image001 image001 image001
Planets Sun Sun Sun
Статистика раздачи
Автор: Nickolas3434 | Размер: 1.12 ГБ | Добавлен: 17 дек 2017
Раздают: 70    Качают: 3
Скачать торрент
Скачать торрент
Описание торрента

СообщениеДобавлено: 17 дек 2017 

Информация о фильме
Название: Безумие 13
Оригинальное название: Dementia 13
Год выхода: 2017
Жанр: ужасы
Режиссер: Ричард Лемэй
В ролях: Джулия Кампанелли, Чаннинг Пикетт, Стив Политс, Марианна Ношезе, Бен ван Беркум, Ана Изабелль, Энтони Сальвадор Льюис, Донал Брофи, Лейф Штайнерт, Роланд Сэндс
О фильме:
Мстительный призрак, таинственный убийца и семья, в которой каждый имеет свой страшный секрет. Что случится, если все они окажутся вместе? И кто переживет эту ночь?
Ремейк первого художественного фильма Фрэнсиса Форда Копполы 1963 года


Страна: США
Продолжительность: 01:23:37
Перевод: Любительский (одноголосый) Хихикающий доктор
Файл
Формат: Matroska
Качество: DVDRip-AVC
Видео: 736x304 (2.42:1), 23.976 fps, XviD build 67 ~1525 kbps avg, 0.28 bit/pixel
Звук: 44.100 kHz, MPEG Layer 3, 2 ch, ~192.00 kbps avg rus
Звук: 44.100 kHz, MPEG Layer 3, 2 ch, ~192.00 kbps avg eng
Субтитры: русские (Хихикающий доктор)
Трейлер
Небольшая реклама в титрах

Format : Matroska
Format version : Version 4 / Version 2
File size : 1.12 GiB
Duration : 1h 23mn
Overall bit rate : 1 913 Kbps
Encoded date : UTC 2017-12-15 17:02:53
Writing application : mkvmerge v15.0.0 ('Duel with the Devil') 64-bit
Writing library : libebml v1.3.5 + libmatroska v1.4.5
DURATION : 01:20:29.387000000
NUMBER_OF_FRAMES : 798
NUMBER_OF_BYTES : 36037
_STATISTICS_WRITING_APP : mkvmerge v15.0.0 ('Duel with the Devil') 64-bit
_STATISTICS_WRITING_DATE_UTC : 2017-12-15 17:02:53
_STATISTICS_TAGS : BPS DURATION NUMBER_OF_FRAMES NUMBER_OF_BYTES
Video
ID : 1
Format : xvid
Codec ID : V_MS/VFW/FOURCC / xvid
Bit rate : 1 491 Kbps
Width : 736 pixels
Height : 304 pixels
Display aspect ratio : 2.40:1
Frame rate mode : Variable
Default : Yes
Forced : No
Audio #1
ID : 2
Format : MPEG Audio
Format version : Version 1
Format profile : Layer 3
Codec ID : A_MPEG/L3
Codec ID/Hint : MP3
Duration : 1h 23mn
Bit rate mode : Constant
Bit rate : 192 Kbps
Channel(s) : 2 channels
Sampling rate : 44.1 KHz
Compression mode : Lossy
Stream size : 115 MiB (10%)
Default : Yes
Forced : No
Audio #2
ID : 3
Format : MPEG Audio
Format version : Version 1
Format profile : Layer 3
Mode : Joint stereo
Codec ID : A_MPEG/L3
Codec ID/Hint : MP3
Duration : 1h 23mn
Bit rate mode : Constant
Bit rate : 192 Kbps
Channel(s) : 2 channels
Sampling rate : 44.1 KHz
Compression mode : Lossy
Stream size : 115 MiB (10%)
Default : No
Forced : No
Text
ID : 4
Format : UTF-8
Codec ID : S_TEXT/UTF8
Codec ID/Info : UTF-8 Plain Text
Default : Yes
Forced : No



   Похожие торренты   Торрент   Размер 
В этой теме нет новых непрочитанных сообщений. Безумие 13 / Dementia 13 (1963) BDRip

2 | 4

1.46 ГБ

В этой теме нет новых непрочитанных сообщений. Безумие / Dementia (2013) Android

5 | 1

127.8 МБ

В этой теме нет новых непрочитанных сообщений. Безумие 13 / Dementia 13 (1963) BDRip от HQCLUB

7 | 3

1.45 ГБ

В этой теме нет новых непрочитанных сообщений. Freiheit - Безумие. Ненависть. Смерть (2017) MP3

0 | 0

91.34 МБ

В этой теме нет новых непрочитанных сообщений. Безумие. Плата за талант (2017) WEBRip от Files-х

0 | 1

504.2 МБ

В этой теме нет новых непрочитанных сообщений. Безумие / Craze (1974) DVDRip | A

36 | 14

1.45 ГБ

В этой теме нет новых непрочитанных сообщений. Слабоумие / Dementia (2015) WEB-DLRip | L1

7 | 0

1.23 ГБ




Вы не можете начинать темы
Вы не можете отвечать на сообщения
Вы не можете редактировать свои сообщения
Вы не можете удалять свои сообщения
Вы не можете добавлять вложения

Перейти:  
Для Мосгорсуда, Роскомнадзора и рекламодателей: mosgorsud-torrent[собачка]yandex.ru
 Вход
ppkBB3cker v.2 © 2008-2014 @ PPK
[ Time : 0.038s | 19 Queries | GZIP : Off ]

cron