img image001 image001 image001 image001 image001 image001 image001 image001 image001 image001 image001 image001 image001 image001 image001 image001

Planets Sun Sun Sun
Статистика раздачи
Автор: Nickolas3434 | Размер: 748.19 МБ | Добавлен: 17 дек 2017
Раздают: 35    Качают: 8
Скачать торрент
Скачать торрент
Описание торрента

СообщениеДобавлено: 17 дек 2017 

Информация о фильме
Название: Сделано в Америке
Оригинальное название: American Made
Год выхода: 2017
Жанр: Боевик, триллер, драма, комедия, криминал, биография, история
Режиссер: Даг Лайман
В ролях: Том Круз, Донал Глисон, Сара Райт, Джесси Племонс, Калеб Лэндри Джонс, Лола Кёрк, Джейма Мейс, Алехандро Эдда, Бенито Мартинес, Э. Роджер Митчелл
О фильме:
Барри Сил (Том Круз) в 1966 году стал самым молодым пилотом «Боинга 747», на тот момент ему было всего 27 лет. Но карьера гражданского летчика не заладилась. Потеря лицензии привела к тому, что Барри связался с Медельинским картелем и стал важным звеном наркотрафика из Латинской Америки в США. Используя регулярные рейсы в этот регион, он стал одним из крупнейших наркокурьеров того времени. В остальное же время он выполнял задания для ЦРУ, которое было очень обеспокоено растущим влиянием коммунистов в этом регионе. Основанная на биографии Барри Сила, лётчика Trans World Airline, и снятая режиссером Дагом Лайманом, эта лента расскажет о его «второй» жизни, которая была скрыта от глаз непосвященных людей. Лейман более известен по своей работе над фильмом «Грань будущего» в которой, кстати говоря, снялся и Том Круз.

Выпущено: США, Cross Creek Pictures, Imagine Entertainment, Quadrant Pictures, Vendian Entertainment
Продолжительность: 01:54:58
Перевод: Дублированный | Лицензия
Файл
Кодек: H.264
Качество: BDRip (AVC)
Видео: MPEG-4 AVC, 780 Кбит/с, 720x388
Звук: Русский, английский (AAC, 2 ch, 63 Кбит/с)
Субтитры: Русские (форсированные, полные), английские
Формат : Matroska
Версия формата : Version 4 / Version 2
Размер файла : 748 Мбайт
Продолжительность : 1 ч. 54 м.
Общий поток : 910 Кбит/сек
Название фильма : American.Made.2017.x264.BDRi.AVC.ExKinoRay
Дата кодирования : UTC 2017-12-16 09:58:13
Программа кодирования : mkvmerge v17.0.0 ('Be Ur Friend') 64-bit
Библиотека кодирования : libebml v1.3.5 + libmatroska v1.4.8
Видео
Идентификатор : 1
Формат : AVC
Формат/Информация : Advanced Video Codec
Профиль формата : High@L4.1
Параметр CABAC формата : Да
Параметр ReFrames формата : 10 кадров
Идентификатор кодека : V_MPEG4/ISO/AVC
Продолжительность : 1 ч. 54 м.
Битрейт : 780 Кбит/сек
Ширина : 720 пикселей
Высота : 388 пикселей
Соотношение сторон : 1,85:1
Режим частоты кадров : Постоянный
Частота кадров : 23,976 (24000/1001) кадра/сек
Цветовое пространство : YUV
Субдискретизация насыщенности : 4:2:0
Битовая глубина : 8 бит
Тип развёртки : Прогрессивная
Бит/(Пиксели*Кадры) : 0.116
Размер потока : 641 Мбайт (86%)
Заголовок : ExKinoRay
Библиотека кодирования : x264 core 152 r2851 ba24899
Настройки программы : cabac=1 / ref=10 / deblock=1:-2:-2 / analyse=0x3:0x133 / me=umh / subme=11 / psy=1 / psy_rd=1.00:0.00 / mixed_ref=1 / me_range=32 / chroma_me=1 / trellis=2 / 8x8dct=1 / cqm=0 / deadzone=21,11 / fast_pskip=0 / chroma_qp_offset=-3 / threads=6 / lookahead_threads=1 / sliced_threads=0 / nr=0 / decimate=0 / interlaced=0 / bluray_compat=0 / constrained_intra=0 / bframes=10 / b_pyramid=2 / b_adapt=2 / b_bias=0 / direct=3 / weightb=1 / open_gop=0 / weightp=2 / keyint=240 / keyint_min=23 / scenecut=40 / intra_refresh=0 / rc_lookahead=40 / rc=2pass / mbtree=0 / bitrate=780 / ratetol=1.0 / qcomp=0.60 / qpmin=0 / qpmax=69 / qpstep=4 / cplxblur=20.0 / qblur=0.5 / vbv_maxrate=50000 / vbv_bufsize=62500 / nal_hrd=none / filler=0 / ip_ratio=1.40 / pb_ratio=1.30 / aq=2:1.00
Язык : English
Default : Да
Forced : Нет
Аудио #1
Идентификатор : 2
Формат : AAC
Формат/Информация : Advanced Audio Codec
Профиль формата : LC
Идентификатор кодека : A_AAC
Продолжительность : 1 ч. 54 м.
Битрейт : 63,3 Кбит/сек
Каналы : 2 канала
Расположение каналов : Front: L R
Частота : 48,0 КГц
Частота кадров : 46,875 кадров/сек (1024 spf)
Метод сжатия : С потерями
Задержка видео : 9 мс.
Размер потока : 52,1 Мбайт (7%)
Заголовок : Dub (Лицензия)
Язык : Russian
Default : Да
Forced : Нет
Аудио #2
Идентификатор : 3
Формат : AAC
Формат/Информация : Advanced Audio Codec
Профиль формата : LC
Идентификатор кодека : A_AAC
Продолжительность : 1 ч. 54 м.
Битрейт : 63,3 Кбит/сек
Каналы : 2 канала
Расположение каналов : Front: L R
Частота : 48,0 КГц
Частота кадров : 46,875 кадров/сек (1024 spf)
Метод сжатия : С потерями
Задержка видео : 9 мс.
Размер потока : 52,1 Мбайт (7%)
Язык : English
Default : Нет
Forced : Нет
Текст #1
Идентификатор : 4
Формат : UTF-8
Идентификатор кодека : S_TEXT/UTF8
Идентификатор кодека/Информация : UTF-8 Plain Text
Продолжительность : 1 ч. 53 м.
Битрейт : 3 бит/сек
Count of elements : 86
Размер потока : 3,26 Кбайт (0%)
Заголовок : Forced
Язык : Russian
Default : Да
Forced : Нет
Текст #2
Идентификатор : 5
Формат : UTF-8
Идентификатор кодека : S_TEXT/UTF8
Идентификатор кодека/Информация : UTF-8 Plain Text
Продолжительность : 1 ч. 53 м.
Битрейт : 85 бит/сек
Count of elements : 1508
Размер потока : 71,2 Кбайт (0%)
Заголовок : Full
Язык : Russian
Default : Нет
Forced : Нет
Текст #3
Идентификатор : 6
Формат : UTF-8
Идентификатор кодека : S_TEXT/UTF8
Идентификатор кодека/Информация : UTF-8 Plain Text
Продолжительность : 1 ч. 45 м.
Битрейт : 68 бит/сек
Count of elements : 1766
Размер потока : 52,9 Кбайт (0%)
Язык : English
Default : Нет
Forced : Нет
Меню
00:00:00.000 : en:Chapter 1
00:06:00.318 : en:Chapter 2
00:10:42.516 : en:Chapter 3
00:14:36.500 : en:Chapter 4
00:21:19.611 : en:Chapter 5
00:27:25.226 : en:Chapter 6
00:33:47.692 : en:Chapter 7
00:41:02.585 : en:Chapter 8
00:46:16.023 : en:Chapter 9
00:51:57.114 : en:Chapter 10
00:54:59.713 : en:Chapter 11
00:59:58.177 : en:Chapter 12
01:07:29.837 : en:Chapter 13
01:13:06.507 : en:Chapter 14
01:17:12.878 : en:Chapter 15
01:23:21.329 : en:Chapter 16
01:26:16.713 : en:Chapter 17
01:33:34.483 : en:Chapter 18
01:38:39.455 : en:Chapter 19
01:46:16.953 : en:Chapter 20


Релиз от:



   Похожие торренты   Торрент   Размер 
В этой теме нет новых непрочитанных сообщений. Сделано в Америке / American Made (2017) BDRip-AVC от ExKinoRay | iTunes

501 | 0

2.42 ГБ

В этой теме нет новых непрочитанных сообщений. Сделано в Америке / American Made (2017) BDRip от ExKinoRay | iTunes

448 | 0

2.08 ГБ

В этой теме нет новых непрочитанных сообщений. Сделано в Америке / American Made (2017) BDRip-AVC от ExKinoRay | iTunes

22 | 2

748.05 МБ

В этой теме нет новых непрочитанных сообщений. Сделано в Америке / American Made (2017) BDRip от ExKinoRay | iTunes

4 | 0

1.41 ГБ

В этой теме нет новых непрочитанных сообщений. Сделано в Америке / American Made (2017) BDRip 720р от ExKinoRay | iTunes

0 | 0

5.28 ГБ

В этой теме нет новых непрочитанных сообщений. Сделано в Америке / American Made (2017) BDRip 1080р от ExKinoRay | iTunes

0 | 0

10.06 ГБ

В этой теме нет новых непрочитанных сообщений. Сделано в Америке / American Made (2017) BDRip от HQCLUB | Лицензия

642 | 39

2.18 ГБ




Вы не можете начинать темы
Вы не можете отвечать на сообщения
Вы не можете редактировать свои сообщения
Вы не можете удалять свои сообщения
Вы не можете добавлять вложения

Перейти:  
 Вход
ppkBB3cker v.2 © 2008-2014 @ PPK
[ Time : 0.040s | 20 Queries | GZIP : Off ]

cron