img image001 image001 image001 image001 image001 image001 image001 image001 image001 image001 image001 image001 image001 image001 image001

Planets Sun Sun Sun
Статистика раздачи
Автор: Nickolas3434 | Размер: 7.59 ГБ | Добавлен: 17 дек 2017
Раздают: 1721    Качают: 86
Скачать торрент
Скачать торрент
Описание торрента

СообщениеДобавлено: 17 дек 2017 




Анонсы 1080p от qqss44



Информация о фильме
Название: Сделано в Америке
Оригинальное название: American Made
Год выпуска: 2017
Жанр: Боевик, триллер, драма, комедия, криминал, биография, история
Режиссер: Даг Лайман
В ролях: Том Круз, Донал Глисон, Сара Райт, Джесси Племонс, Калеб Лэндри Джонс, Лола Кёрк, Джейма Мейс, Алехандро Эдда, Бенито Мартинес, Э. Роджер Митчелл
О фильме:
Он был самым юным пилотом Боинга 747 в США, а уже через несколько лет стал одним из богатейших людей в Америке. Его стиль жизни был столь же экстремальным, как и его бизнес. Закрытые приемы, роскошные блондинки, крутые тачки и рисковые сделки. Он обладал талантом делать деньги из воздуха.

Страна: США
Студия: Cross Creek Pictures, Imagine Entertainment, Quadrant Pictures, Vendian Entertainment
Продолжительность: 01:54:58
Перевод: Дублированный | Лицензия
Файл
Формат: MKV, BDRip 1080p
Видео: MPEG-4 AVC, 9000 Кбит/с, 1920x1038
Aудио#1: [RUS] AC3 | 48 KHz | 5.1 (Front: L С R Side: L R) + LFE | ~448 kbps
Субтитры: русские (форсированные и полные)
Релиз от:


Общее
Уникальный идентификатор : 211866620396707552521819530855142976913 (0x9F6406DF3C78572DAFD2AD11B5C8ED91)
Полное имя : H:American.Made.(2017).BDRip.1080p.MegaPeer.by.(qqss44).mkv
Формат : Matroska
Версия формата : Version 2
Размер файла : 7,59 Гбайт
Продолжительность : 1 ч. 54 м.
Общий поток : 9447 Кбит/сек
Дата кодирования : UTC 2017-12-16 14:11:13
Программа кодирования : mkvmerge v5.8.0 ('No Sleep / Pillow') built on Sep 2 2012 15:37:04
Библиотека кодирования : libebml v1.2.3 + libmatroska v1.3.0
Видео
Идентификатор : 1
Формат : AVC
Формат/Информация : Advanced Video Codec
Профиль формата : High@L4.1
Параметр CABAC формата : Да
Параметр ReFrames формата : 4 кадра
Идентификатор кодека : V_MPEG4/ISO/AVC
Продолжительность : 1 ч. 54 м.
Битрейт : 9000 Кбит/сек
Ширина : 1920 пикселей
Высота : 1038 пикселей
Соотношение сторон : 1,85:1
Режим частоты кадров : Постоянный
Частота кадров : 23,976 (24000/1001) кадра/сек
Цветовое пространство : YUV
Субдискретизация насыщенности : 4:2:0
Битовая глубина : 8 бит
Тип развёртки : Прогрессивная
Бит/(Пиксели*Кадры) : 0.188
Размер потока : 7,08 Гбайт (93%)
Библиотека кодирования : x264 core 152 r2851kMod ba24899
Настройки программы : cabac=1 / ref=4 / deblock=1:-1:-1 / analyse=0x3:0x113 / me=umh / subme=11 / psy=1 / fade_compensate=0.00 / psy_rd=1.00:0.00 / mixed_ref=1 / me_range=32 / chroma_me=1 / trellis=2 / 8x8dct=1 / cqm=0 / deadzone=21,11 / fast_pskip=0 / chroma_qp_offset=-2 / threads=12 / lookahead_threads=2 / sliced_threads=0 / nr=0 / decimate=0 / interlaced=0 / bluray_compat=0 / constrained_intra=0 / bframes=7 / b_pyramid=2 / b_adapt=2 / b_bias=0 / direct=3 / weightb=1 / open_gop=0 / weightp=2 / keyint=240 / keyint_min=23 / scenecut=40 / intra_refresh=0 / rc_lookahead=40 / rc=2pass / mbtree=0 / bitrate=9000 / ratetol=1.0 / qcomp=0.70 / qpmin=0 / qpmax=69 / qpstep=4 / cplxblur=20.0 / qblur=0.5 / vbv_maxrate=50000 / vbv_bufsize=62500 / nal_hrd=none / filler=0 / ip_ratio=1.40 / pb_ratio=1.30 / aq=3:0.80
Язык : English
Default : Да
Forced : Нет
Аудио
Идентификатор : 2
Формат : AC-3
Формат/Информация : Audio Coding 3
Расширение режима : CM (complete main)
Параметр Endianness формата : Big
Идентификатор кодека : A_AC3
Продолжительность : 1 ч. 54 м.
Вид битрейта : Постоянный
Битрейт : 448 Кбит/сек
Каналы : 6 каналов
Расположение каналов : Front: L C R, Side: L R, LFE
Частота : 48,0 КГц
Частота кадров : 31,250 кадров/сек (1536 spf)
Метод сжатия : С потерями
Размер потока : 368 Мбайт (5%)
Язык : Russian
Default : Да
Forced : Нет
Текст #1
Идентификатор : 3
Формат : UTF-8
Идентификатор кодека : S_TEXT/UTF8
Идентификатор кодека/Информация : UTF-8 Plain Text
Заголовок : FORCED
Язык : Russian
Default : Да
Forced : Нет
Текст #2
Идентификатор : 4
Формат : UTF-8
Идентификатор кодека : S_TEXT/UTF8
Идентификатор кодека/Информация : UTF-8 Plain Text
Заголовок : FULL
Язык : Russian
Default : Нет
Forced : Нет
Меню
00:00:00.000 : en:Chapter 1
00:06:00.318 : en:Chapter 2
00:10:42.516 : en:Chapter 3
00:14:36.500 : en:Chapter 4
00:21:19.611 : en:Chapter 5
00:27:25.226 : en:Chapter 6
00:33:47.692 : en:Chapter 7
00:41:02.585 : en:Chapter 8
00:46:16.023 : en:Chapter 9
00:51:57.114 : en:Chapter 10
00:54:59.713 : en:Chapter 11
00:59:58.177 : en:Chapter 12
01:07:29.837 : en:Chapter 13
01:13:06.507 : en:Chapter 14
01:17:12.878 : en:Chapter 15
01:23:21.329 : en:Chapter 16
01:26:16.713 : en:Chapter 17
01:33:34.483 : en:Chapter 18
01:38:39.455 : en:Chapter 19
01:46:16.953 : en:Chapter 20



   Похожие торренты   Торрент   Размер 
В этой теме нет новых непрочитанных сообщений. Сделано в Америке / American Made (2017) BDRip от MegaPeer | Лицензия

118 | 6

2.18 ГБ

В этой теме нет новых непрочитанных сообщений. Сделано в Америке / American Made (2017) BDRip 1080p от New-Team & qqss44 | iTunes

105 | 10

7.54 ГБ

В этой теме нет новых непрочитанных сообщений. Сделано в Америке / American Made (2017) BDRip 720p от k.e.n & MegaPeer | Лицензия

163 | 16

4.37 ГБ

В этой теме нет новых непрочитанных сообщений. Сделано в Америке / American Made (2017) BDRip 1080p | Лицензия

93 | 14

14.84 ГБ

В этой теме нет новых непрочитанных сообщений. Сделано в Америке / American Made (2017) BDRip от MegaPeer | iTunes

0 | 0

1.41 ГБ

В этой теме нет новых непрочитанных сообщений. Сделано в Америке / American Made (2017) BDRip от MegaPeer | iTunes

0 | 0

745.4 МБ

В этой теме нет новых непрочитанных сообщений. Сделано в Америке / American Made (2017) BDRemux 1080p | D, A | Лицензия

31 | 9

28.32 ГБ




Вы не можете начинать темы
Вы не можете отвечать на сообщения
Вы не можете редактировать свои сообщения
Вы не можете удалять свои сообщения
Вы не можете добавлять вложения

Перейти:  
 Вход
ppkBB3cker v.2 © 2008-2014 @ PPK
[ Time : 0.035s | 18 Queries | GZIP : Off ]

cron