img image001 image001 image001 image001 image001 image001 image001 image001 image001 image001 image001 image001 image001 image001 image001 image001

Planets Sun Sun Sun
Статистика раздачи
Автор: Nickolas3434 | Размер: 1.6 ГБ | Добавлен: 17 дек 2017
Раздают: 16    Качают: 1
Скачать торрент
Скачать торрент
Описание торрента

СообщениеДобавлено: 17 дек 2017 

Информация о фильме
Название: Господа младенцы
Оригинальное название: Messieurs les enfants
Год выхода: 1997
Жанр: семейный, комедия
Режиссер: Пьер Бутрон
В ролях: Пьер Ардити, Франсуа Морель, Зинедин Суалем, Катрин Жакоб, Жан-Луи Ришар, Мишель Омон, Анна Жакмен, Нозха Кхуадра, Натали Оффре, Жан-Клод Легэ
О фильме:
Два хулиганистых пацана решили поиздеваться над своим школьным учителем. «Зверски замученный» всеми их безобразиями, педагог решает отомстить обидчикам и заставляет их написать сочинение, в котором они — взрослые, а их родители — дети. Погружаясь в проблемы взрослых, дети внезапно оказываются в страшном «Большом Мире» со всеми его сложностями и заботами.

Производство: Франция / CiBy 2000, El Deseo, France 3 (FR 3)
Продолжительность: 01:38:03
Перевод: профессиональный (многоголосый закадровый)
Файл
Качество: DVDRip
Формат: AVI
Видео: XviD, 720x416 (16:9), 25.000 fps, 1932 kbps, 0.258 bit/pixel
Аудио #1: русский, AC3 2.0, 48 kHz, 192 kbps
Аудио #2: французский, AC3 2.0, 48 kHz, 192 kbps
Формат : AVI
Формат/Информация : Audio Video Interleave
Размер файла : 1,60 Гбайт
Продолжительность : 1 ч. 38 м.
Общий поток : 2330 Кбит/сек
Программа кодирования : VirtualDubMod 1.5.10.2 (build 2540/release)
Библиотека кодирования : VirtualDubMod build 2540/release
Видео
Идентификатор : 0
Формат : MPEG-4 Visual
Профиль формата : Advanced Simple@L5
Параметр BVOP формата : 2
Параметр QPel формата : Нет
Параметр GMC формата : Без точки перехода
Параметр матрицы формата : Default (MPEG)
Идентификатор кодека : XVID
Идентификатор кодека/Подсказка : XviD
Продолжительность : 1 ч. 38 м.
Битрейт : 1932 Кбит/сек
Ширина : 720 пикселей
Высота : 416 пикселей
Соотношение сторон : 1,731
Частота кадров : 25,000 кадров/сек
Цветовое пространство : YUV
Субдискретизация насыщенности : 4:2:0
Битовая глубина : 8 бит
Тип развёртки : Прогрессивная
Метод сжатия : С потерями
Бит/(Пиксели*Кадры) : 0.258
Размер потока : 1,32 Гбайт (83%)
Библиотека кодирования : XviD 1.2.1 (UTC 2008-12-04)
Аудио #1
Идентификатор : 1
Формат : AC-3
Формат/Информация : Audio Coding 3
Расширение режима : CM (complete main)
Параметр Endianness формата : Big
Идентификатор кодека : 2000
Продолжительность : 1 ч. 38 м.
Вид битрейта : Постоянный
Битрейт : 192 Кбит/сек
Каналы : 2 канала
Расположение каналов : Front: L R
Частота : 48,0 КГц
Метод сжатия : С потерями
Размер потока : 135 Мбайт (8%)
Выравнивание : Разделение по промежуткам
Продолжительность промежутка : 40 мс. (1,00 видеокадр)
Время предзагрузки промежутка : 500 мс.
Аудио #2
Идентификатор : 2
Формат : AC-3
Формат/Информация : Audio Coding 3
Расширение режима : CM (complete main)
Параметр Endianness формата : Big
Идентификатор кодека : 2000
Продолжительность : 1 ч. 38 м.
Вид битрейта : Постоянный
Битрейт : 192 Кбит/сек
Каналы : 2 канала
Расположение каналов : Front: L R
Частота : 48,0 КГц
Метод сжатия : С потерями
Размер потока : 135 Мбайт (8%)
Выравнивание : Разделение по промежуткам
Продолжительность промежутка : 40 мс. (1,00 видеокадр)
Время предзагрузки промежутка : 500 мс.



   Похожие торренты   Торрент   Размер 
В этой теме нет новых непрочитанных сообщений. Прекрасные господа из Буа-Доре / Les Beaux messieurs de Bois-Doré (1976) DVDRip

23 | 10

6.83 ГБ

В этой теме нет новых непрочитанных сообщений. Прекрасные господа из Буа-Доре / Les beaux messieurs de Bois-Doré [Полная версия - 5 серий] (1976) DVDRip

6 | 4

6.69 ГБ

В этой теме нет новых непрочитанных сообщений. Гениальные младенцы / Baby Geniuses (1999) DVDRip от ExKinoRay

18 | 3

1.47 ГБ

В этой теме нет новых непрочитанных сообщений. Господа офицеры [01-08 из 08] (2004) DVDRip

473 | 33

4.43 ГБ

В этой теме нет новых непрочитанных сообщений. Господа артисты (1994) DVDRip от LTarik

0 | 3

1.37 ГБ

В этой теме нет новых непрочитанных сообщений. Дети дождя / Les Enfants de la pluie (2003) DVDRip

22 | 5

1.31 ГБ

В этой теме нет новых непрочитанных сообщений. Избалованные дети / Des enfants gâtés (1977) DVDRip | P2

2 | 2

1.45 ГБ




Вы не можете начинать темы
Вы не можете отвечать на сообщения
Вы не можете редактировать свои сообщения
Вы не можете удалять свои сообщения
Вы не можете добавлять вложения

Перейти:  
 Вход
ppkBB3cker v.2 © 2008-2014 @ PPK
[ Time : 0.047s | 18 Queries | GZIP : Off ]

cron