img image001 image001 image001 image001 image001 image001 image001 image001 image001 image001 image001 image001 image001 image001 image001

Planets Sun Sun Sun
Статистика раздачи
Автор: Nickolas3434 | Размер: 744.46 МБ | Добавлен: 17 дек 2017
Раздают: 9    Качают: 0
Скачать торрент
Скачать торрент
Описание торрента

СообщениеДобавлено: 17 дек 2017 

Информация о фильме
Название: Закон страны
Оригинальное название: Armoton maa
Год выхода: 2017
Жанр: Драма, криминал, боевик
Режиссер: Юсси Хилтунен
В ролях: Вилле Виртанен, Антти Хольма, Микко Неувонен, Малин Буска, Оути Мяенпяя, Пернилла Аугуст, Ёрген Лангхелле, Андреас аф Энегельм, Тайсто Рейво, Питер Луккари
О фильме:
В центре событий отставной полицейский Лассе, уже немолодой дядька, известный во всей округе благодаря своей крутой репутации. Его жизнь уже давно перевалила за середину, и всё вроде бы предвещает спокойную пенсию в провинциальной Финляндии. Однако, тишь да гладь размеренной финской глубинки нарушена из-за того, что из тюрьмы выходит внебрачный сын Лассе, некто Якко. Очевидно, что Лассе в силу особенностей своего характера, а также рода деятельности за всю свою жизнь так и не стал хорошим отцом. Размеренная тишина финских деревушек, неторопливость Севера, немного затянутые реакции людей, - всё это завораживает обманом психологической жвачки, некоторой тянучестью событий. Однако, крутизна последовавших событий заставляет зрителя испытать растянутое чувство напряжения, где нет жалости для героев, а убийства сопровождаются безэмоциональностью, демонстрируя привычку разбираться жёстко и с результатом.

Выпущено: Финляндия, Норвегия, FilmCamp, Making Movies Oy, Sweet Films
Продолжительность: 01:29:55
Перевод: Авторский одноголосый (Антон Карповский)
Файл
Кодек: H.264
Качество: BDRip (AVC)
Видео: MPEG-4 AVC, 1088 Кбит/с, 720x302
Звук: Русский (AАС, 2 ch, 72 Кбит/с)
Без какой-либо рекламы
Формат : Matroska
Версия формата : Version 4 / Version 2
Размер файла : 744 Мбайт
Продолжительность : 1 ч. 29 м.
Общий поток : 1158 Кбит/сек
Название фильма : Armoton.maa.2017.x264.BDRip.AVC.ExKinoRay
Дата кодирования : UTC 2017-12-16 14:56:47
Программа кодирования : mkvmerge v17.0.0 ('Be Ur Friend') 64-bit
Библиотека кодирования : libebml v1.3.5 + libmatroska v1.4.8
Видео
Идентификатор : 1
Формат : AVC
Формат/Информация : Advanced Video Codec
Профиль формата : High@L4.1
Параметр CABAC формата : Да
Параметр ReFrames формата : 10 кадров
Идентификатор кодека : V_MPEG4/ISO/AVC
Продолжительность : 1 ч. 29 м.
Битрейт : 1088 Кбит/сек
Ширина : 720 пикселей
Высота : 302 пикселя
Соотношение сторон : 2,40:1
Режим частоты кадров : Постоянный
Частота кадров : 23,976 (24000/1001) кадра/сек
Цветовое пространство : YUV
Субдискретизация насыщенности : 4:2:0
Битовая глубина : 8 бит
Тип развёртки : Прогрессивная
Бит/(Пиксели*Кадры) : 0.209
Размер потока : 697 Мбайт (94%)
Заголовок : ExKinoRay
Библиотека кодирования : x264 core 152 r2851 ba24899
Настройки программы : cabac=1 / ref=10 / deblock=1:-2:-2 / analyse=0x3:0x133 / me=umh / subme=11 / psy=1 / psy_rd=1.00:0.00 / mixed_ref=1 / me_range=32 / chroma_me=1 / trellis=2 / 8x8dct=1 / cqm=0 / deadzone=21,11 / fast_pskip=0 / chroma_qp_offset=-3 / threads=6 / lookahead_threads=1 / sliced_threads=0 / nr=0 / decimate=0 / interlaced=0 / bluray_compat=0 / constrained_intra=0 / bframes=10 / b_pyramid=2 / b_adapt=2 / b_bias=0 / direct=3 / weightb=1 / open_gop=0 / weightp=2 / keyint=240 / keyint_min=23 / scenecut=40 / intra_refresh=0 / rc_lookahead=40 / rc=2pass / mbtree=0 / bitrate=1088 / ratetol=1.0 / qcomp=0.60 / qpmin=0 / qpmax=69 / qpstep=4 / cplxblur=20.0 / qblur=0.5 / vbv_maxrate=50000 / vbv_bufsize=62500 / nal_hrd=none / filler=0 / ip_ratio=1.40 / pb_ratio=1.30 / aq=2:1.00
Язык : Finnish
Default : Да
Forced : Нет
Аудио
Идентификатор : 2
Формат : AAC
Формат/Информация : Advanced Audio Codec
Профиль формата : LC
Идентификатор кодека : A_AAC
Продолжительность : 1 ч. 29 м.
Битрейт : 72,0 Кбит/сек
Каналы : 2 канала
Расположение каналов : Front: L R
Частота : 48,0 КГц
Частота кадров : 46,875 кадров/сек (1024 spf)
Метод сжатия : С потерями
Задержка видео : 9 мс.
Размер потока : 46,3 Мбайт (6%)
Язык : Russian
Default : Да
Forced : Нет
Меню
00:00:00.000 : en:Chapter 01
00:09:42.248 : en:Chapter 02
00:20:25.265 : en:Chapter 03
00:30:26.449 : en:Chapter 04
00:34:36.574 : en:Chapter 05
00:42:11.779 : en:Chapter 06
00:48:05.924 : en:Chapter 07
00:54:22.008 : en:Chapter 08
01:02:29.579 : en:Chapter 09
01:09:34.587 : en:Chapter 10
01:17:40.030 : en:Chapter 11
01:27:20.234 : en:Chapter 12
01:29:52.929 : en:Chapter 13


Релиз от:



   Похожие торренты   Торрент   Размер 
В этой теме нет новых непрочитанных сообщений. Закон страны / Armoton maa (2017) HDRip от Kaztorrents | КПК | A

17 | 1

341.91 МБ

В этой теме нет новых непрочитанных сообщений. Закон страны / Law of the Land / Armoton maa (Юсси Хилтунен) [2017, криминал, драма, HDRip] MVO

2 | 0

1.36 ГБ

В этой теме нет новых непрочитанных сообщений. Волшебник страны Оз / The Wizard Of Oz (1939) BDRip-AVC от ExKinoRay

33 | 8

3.05 ГБ

В этой теме нет новых непрочитанных сообщений. Страны (Сверху виднее) (1-17 серии из 17) / Pays (Гильем Бернард, Ксавье Лефевр) [2014, 2016, документальный, познавательный, путешествия, страны, города, HDTVRip 720р] DVO / Blu-Ray / BDRip / HDTV

4 | 0

21.37 ГБ

В этой теме нет новых непрочитанных сообщений. Страны (Сверху виднее) (1-17 серии из 17) / Pays (Гильем Бернард, Ксавье Лефевр) [2014, 2016, документальный, познавательный, путешествия, страны, города, HDTV 1080i] DVO / Blu-Ray / BDRip / HDTV

2 | 0

45.93 ГБ

В этой теме нет новых непрочитанных сообщений. Закон есть закон / La legge e legge (1958) DVDRip от ExKinoRay

66 | 8

1.37 ГБ

В этой теме нет новых непрочитанных сообщений. Закон ночи / Live by Night (2016) BDRip-AVC от ExKinoRay | iTunes

34 | 11

2.24 ГБ




Вы не можете начинать темы
Вы не можете отвечать на сообщения
Вы не можете редактировать свои сообщения
Вы не можете удалять свои сообщения
Вы не можете добавлять вложения

Перейти:  
 Вход
ppkBB3cker v.2 © 2008-2014 @ PPK
[ Time : 0.033s | 18 Queries | GZIP : Off ]

cron