img image001 image001 image001 image001 image001 image001 image001 image001 image001 image001 image001 image001 image001 image001 image001 image001

Planets Sun Sun Sun
Статистика раздачи
Автор: Nickolas3434 | Размер: 1.37 ГБ | Добавлен: 17 дек 2017
Раздают: 0    Качают: 1
Скачать торрент
Скачать торрент
Описание торрента

СообщениеДобавлено: 17 дек 2017 

Информация о фильме
Название: Рим, открытый город
Оригинальное название: Roma città aperta
Год выхода: 1945
Жанр: Драма, военный
Режиссер: Роберто Росселлини
В ролях: Альдо Фабрици, Анна Маньяни, Марчелло Пальеро, Вито Анникьярико, Нандо Бруно, Харри Файст, Джованна Галлетти, Франческо Гранжаке, Эдуардо Пассарелли, Мария Мики
О фильме:
Рим в последние месяцы оккупации. Умирающая немецкая армия отчаянно хранит последние свои оплоты и жестоко расправляется с мятежниками. Но в сердце города уже родился свой отряд Сопротивления. Близок конец войны…
Семпл
Страна: Италия
Студия: Excelsa Film
Продолжительность: 01:42:44
Перевод: Профессиональный, многоголосый - ВГТРК
Файл
Кодек: XviD
Качество: HDRip
Видео: 704x528 (1.33:1), 23.976 fps, XviD build 73 ~1709 kbps avg, 0.19 bit/pixel
Звук: 48 kHz, AC3 Dolby Digital, 2/0 (L,R) ch, ~192 kbps
Субтитры: Отсутствуют
General
Complete name : D:Rim otkryityiy gorod 1945.MO.VGTRK.HDRip by ExKinoRay.avi
Format : AVI
Format/Info : Audio Video Interleave
File size : 1.37 GiB
Duration : 1 h 42 min
Overall bit rate : 1 911 kb/s
Writing application : VirtualDubMod 1.5.10.3 | www.virtualdub-fr.org || (build 2550/release)
Writing library : VirtualDubMod build 2550/release
Video
ID : 0
Format : MPEG-4 Visual
Format profile : Advanced Simple@L5
Format settings : BVOP1 / Custom Matrix
Format settings, BVOP : 1
Format settings, QPel : No
Format settings, GMC : No warppoints
Format settings, Matrix : Custom
Codec ID : XVID
Codec ID/Hint : XviD
Duration : 1 h 42 min
Bit rate : 1 709 kb/s
Width : 704 pixels
Height : 528 pixels
Display aspect ratio : 4:3
Frame rate : 23.976 (24000/1001) FPS
Color space : YUV
Chroma subsampling : 4:2:0
Bit depth : 8 bits
Scan type : Progressive
Compression mode : Lossy
Bits/(Pixel*Frame) : 0.192
Stream size : 1.23 GiB (89%)
Writing library : XviD 73
Audio
ID : 1
Format : AC-3
Format/Info : Audio Coding 3
Format settings, Endianness : Big
Codec ID : 2000
Duration : 1 h 42 min
Bit rate mode : Constant
Bit rate : 192 kb/s
Channel(s) : 2 channels
Channel positions : Front: L R
Sampling rate : 48.0 kHz
Frame rate : 31.250 FPS (1536 SPF)
Bit depth : 16 bits
Compression mode : Lossy
Stream size : 141 MiB (10%)
Alignment : Split accross interleaves
Interleave, duration : 42 ms (1.00 video frame)
Interleave, preload duratio : 500 ms
Service kind : Complete Main

Релиз от:



   Похожие торренты   Торрент   Размер 
В этой теме нет новых непрочитанных сообщений. Рим, открытый город / Roma città aperta (1945) HDRip от ExKinoRay | P

12 | 2

745.78 МБ

В этой теме нет новых непрочитанных сообщений. Рим, открытый город / Roma città aperta (1945) BDRip 720p | P

2 | 0

4.65 ГБ

В этой теме нет новых непрочитанных сообщений. Рим, открытый город / Roma città aperta (1945) BDRemux 1080р | P

5 | 4

26.01 ГБ

В этой теме нет новых непрочитанных сообщений. Город насилия / Città violenta / Violent City (1970) DVD-9

1 | 14

6.71 ГБ

В этой теме нет новых непрочитанных сообщений. Город насилия / Citta violenta (1970) BDRip от NovaLan

7 | 6

1.45 ГБ

В этой теме нет новых непрочитанных сообщений. Город насилия / Citta violenta (1970) BDRip-AVC от KinoZalSat

2 | 60

2.03 ГБ

В этой теме нет новых непрочитанных сообщений. Город зомби / Incubo sulla citta contaminata (1980) DVDRip

6 | 4

698.28 МБ




Вы не можете начинать темы
Вы не можете отвечать на сообщения
Вы не можете редактировать свои сообщения
Вы не можете удалять свои сообщения
Вы не можете добавлять вложения

Перейти:  
 Вход
ppkBB3cker v.2 © 2008-2014 @ PPK
[ Time : 0.029s | 19 Queries | GZIP : Off ]

cron