img image001 image001 image001 image001 image001 image001 image001 image001 image001 image001 image001 image001 image001 image001 image001 image001

Planets Sun Sun Sun
Статистика раздачи
Автор: Nickolas3434 | Размер: 3.52 ГБ | Добавлен: 17 дек 2017
Раздают: 13    Качают: 1
Скачать торрент
Скачать торрент
Описание торрента

СообщениеДобавлено: 17 дек 2017 

Информация о фильме
Наименование: Очень противная свадьба
Оригинальное наименование: A Very Sordid Wedding
Произведено: США
Категория: комедия
Режиссер постановщик: Дэль Шоурс
В главных ролях: Вупи Голдберг, Дейл Дикки, Бонни Беделиа, Блейк МакИвер Юинг, Алекс Паунович, Лесли Джордан, Кэролайн Ри, Кэтерин Бэйлесс, Леви Крейс, Алек Мапа
О фильме: Устав от религиозного фанатизма и гомофобных настроений в своём родном городе в штате Техас, сёстры Лэтрей, Лаванда и тётя Сисси начинают борьбу с попытками «Общества против равенства» запретить однополые браки в округе. Только эти милые, яркие и смекалистые дамы могут спасти этот город.

Файл
Качество: BDRip 720p
Видео данные: MKV, 1280x720 (16:9), 23.976 fps, 4000 Кбит/с
Аудио данные: AC3, 2 ch, 640 Кбит/с
Перевод: Любительский многоголосый (GreenРай Studio)
Продолжительность: 01:49:47
Над релизом работали:
Состав дикторов: Илья Кочетков и Анастасия Гайдаржи, Анна Кириленко
Руководитель проекта и координатор: Евгений Овчаренко
Организатор и координатор: Никита Марков
Пиар менеджер студии: Игорь Обухов
Техническая поддержка: Александр Методий
General
Unique ID : 171540728160003519819753406933432473328 (0x810D8AE193C01D9089DCD84BFCDB16F0)
Complete name : D:Э вериA.Very.Sordid.Wedding.2017.P.BDRip.720p.mkv
Format : Matroska
Format version : Version 4 / Version 2
File size : 3.52 GiB
Duration : 1 h 49 min
Overall bit rate mode : Constant
Overall bit rate : 4 619 kb/s
Encoded date : UTC 2017-12-15 11:59:09
Writing application : mkvmerge v8.3.0 ('Over the Horizon') 64bit
Writing library : libebml v1.3.1 + libmatroska v1.4.2
Video
ID : 1
Format : AVC
Format/Info : Advanced Video Codec
Format profile : Main@L3.2
Format settings, CABAC : Yes
Format settings, ReFrames : 3 frames
Codec ID : V_MPEG4/ISO/AVC
Duration : 1 h 49 min
Bit rate mode : Constant
Bit rate : 4 000 kb/s
Width : 1 280 pixels
Height : 720 pixels
Display aspect ratio : 16:9
Frame rate mode : Constant
Frame rate : 23.976 (23976/1000) FPS
Standard : NTSC
Color space : YUV
Chroma subsampling : 4:2:0
Bit depth : 8 bits
Scan type : Progressive
Bits/(Pixel*Frame) : 0.181
Stream size : 3.03 GiB (86%)
Language : English
Default : Yes
Forced : No
Color range : Limited
Audio
ID : 2
Format : AC-3
Format/Info : Audio Coding 3
Mode extension : CM (complete main)
Format settings, Endianness : Big
Codec ID : A_AC3
Duration : 1 h 49 min
Bit rate mode : Constant
Bit rate : 640 kb/s
Channel(s) : 2 channels
Channel positions : Front: L R
Sampling rate : 48.0 kHz
Frame rate : 31.250 FPS (1536 spf)
Compression mode : Lossy
Stream size : 499 MiB (14%)
Default : Yes
Forced : No

ВНИМАНИЕ! Присутствует реклама!

Релиз от:



   Похожие торренты   Торрент   Размер 
В этой теме нет новых непрочитанных сообщений. Очень противная свадьба / A Very Sordid Wedding (2017) HDRip | L

32 | 0

1.37 ГБ

В этой теме нет новых непрочитанных сообщений. Большая свадьба / The Big Wedding (2013) BDRip 720p | Лицензия

0 | 3

5.24 ГБ

В этой теме нет новых непрочитанных сообщений. Большая свадьба / The Big Wedding (2013) BDRip 720p от HQ-ViDEO

98 | 6

4.49 ГБ

В этой теме нет новых непрочитанных сообщений. Свадьба лучшего друга / My Best Friend's Wedding (1997) BDRip 720p

83 | 9

5.77 ГБ

В этой теме нет новых непрочитанных сообщений. Моя большая греческая свадьба 2 / My Big Fat Greek Wedding 2 (2016) BDRip 720p | L

81 | 9

4.59 ГБ

В этой теме нет новых непрочитанных сообщений. Большая свадьба / The Big Wedding (2013) BDRip 720p от Hot-Film | Лицензия

54 | 8

4.37 ГБ

В этой теме нет новых непрочитанных сообщений. Королевская свадьба / Royal Wedding / Wedding Bells (1951) DVDRip

2 | 2

1.91 ГБ




Вы не можете начинать темы
Вы не можете отвечать на сообщения
Вы не можете редактировать свои сообщения
Вы не можете удалять свои сообщения
Вы не можете добавлять вложения

Перейти:  
 Вход
ppkBB3cker v.2 © 2008-2014 @ PPK
[ Time : 0.389s | 17 Queries | GZIP : Off ]

cron