img image001 image001 image001 image001 image001 image001 image001 image001 image001 image001 image001 image001 image001 image001 image001

Planets Sun Sun Sun
Статистика раздачи
Автор: Nickolas3434 | Размер: 14.76 ГБ | Добавлен: 20 дек 2017
Раздают: 54    Качают: 2
Скачать торрент
Скачать торрент
Описание торрента

СообщениеДобавлено: 20 дек 2017 

Название: Облачный атлас
Оригинальное название: Cloud Atlas


Год выпуска: 2012
Страна: США, Германия, Гонконг, Сингапур
Жанр: Фантастика, драма, детектив
Продолжительность: 02:51:57
Перевод: Дублированный [License] RUS, UKR
Субтитры: Русские, английские


В ролях: Том Хэнкс, Холли Берри, Джим Бродбент, Хьюго Уивинг, Джим Стёрджесс, Ду На Пэ, Бен Уишоу, Джеймс Д`Арси, Жу Жу, Кит Дэвид, Дэвид Гяси, Сьюзен Сарандон, Сюнь Чжоу, Хью Грант
Режиссёр: Лана Вачовски, Энди Вачовски, Том Тыквер


Описание: На протяжении всей истории человечества людей весьма волновал вопрос - что происходит после смерти? Существует ли продолжение, или нет? Фантастический фильм «Облачный атлас», снятый по мотивам одноименного бестселлера Дэвида Митчелла, рассказывает шесть историй реинкарнации одной души, причем две из которых происходят в будущем времени. Масштабная экранизация удивительной книги представляет собой несколько тесно связанных воедино повествований, происходящих на разных этапах развития человеческой цивилизации. Это фильм загадка, которую зритель постигает на протяжении всего просмотра. И лишь в самом финале картинка складывается в определенный орнамент.


Качество: BDRip-HEVC 1080p
Формат: MKV
Видео кодек: x265@10bit
Аудио кодек: DTS, AC3
Видео: 1920x800, 23.976 fps, HEVC, ~9259 kbps, 10bit
Аудио: Rus, 48 kHz/24-bit, DTS 5.1, ~1509 kbps | Дубляж
Аудио: Ukr, 48 kHz/16-bit, AC3 5.1, ~448 kbps | Дубляж (LeDoyen Studio)
Аудио: Eng, 48 kHz/24-bit, DTS 5.1, ~1509 kbps | Оригинал
Навигация по главам: Присутствует


Автор рипа: Alex_A









- H.265/HEVC (High Efficiency Video Coding) - это новый стандарт кодирования видео.
- Стандарт H.265/HEVC является логическим продолжением стандарта H.264/AVC (Advanced Video Coding), и характеризуется более эффективными алгоритмами сжатия, а также поддержкой высокого разрешения вплоть до 8K UHD (8192x4320). Первая версия стандарта H.265 была опубликована в начале 2013 года.
- Рипы в фомате HEVC поддерживается не всеми аппаратными проигрывателями.
- Для корректного воспроизведения может потребоваться обновление ПО.
- Владельцам несовместимого железа просьба не беспокоить, есть альтернативные релизы.
General
Unique ID : 236342160635145942100911077351866279924 (0xB1CDD82C7D0E15ACB3F4B67C7DB4A7F4)
Complete name : d:HEVCCloud Atlas (2012)Cloud.Atlas.2012.1080p_HEVCCLUB.mkv
Format : Matroska
Format version : Version 4 / Version 2
File size : 14.8 GiB
Duration : 2 h 51 min
Overall bit rate : 12.3 Mb/s
Movie name : Cloud Atlas (2012) - HEVC.CLUB
Encoded date : UTC 2017-12-03 22:55:55
Writing application : mkvmerge v18.0.0 ('Apricity') 64-bit
Writing library : libebml v1.3.5 + libmatroska v1.4.8
Cover : Yes
Attachments : Cover.jpg
Video
ID : 1
Format : HEVC
Format/Info : High Efficiency Video Coding
Format profile : Main 10@L4.1@High
Codec ID : V_MPEGH/ISO/HEVC
Duration : 2 h 43 min
Bit rate : 9 259 kb/s
Width : 1 920 pixels
Height : 800 pixels
Display aspect ratio : 2.40:1
Frame rate mode : Constant
Frame rate : 23.976 (24000/1001) FPS
Color space : YUV
Chroma subsampling : 4:2:0
Bit depth : 10 bits
Bits/(Pixel*Frame) : 0.251
Stream size : 10.6 GiB (72%)
Title : HEVC.CLUB
Writing library : x265 2.5+20-0967d0add97e:[Windows][GCC 7.2.0][64 bit] 10bit
Encoding settings : cpuid=1173503 / frame-threads=3 / numa-pools=8 / wpp / pmode / no-pme / no-psnr / ssim / log-level=2 / input-csp=1 / input-res=1920x800 / interlace=0 / total-frames=0 / level-idc=41 / high-tier=1 / uhd-bd=0 / ref=6 / no-allow-non-conformance / repeat-headers / annexb / no-aud / no-hrd / info / hash=0 / no-temporal-layers / open-gop / min-keyint=23 / keyint=250 / bframes=10 / b-adapt=2 / b-pyramid / bframe-bias=0 / rc-lookahead=60 / lookahead-slices=1 / scenecut=40 / no-intra-refresh / ctu=64 / min-cu-size=8 / no-rect / no-amp / max-tu-size=32 / tu-inter-depth=3 / tu-intra-depth=3 / limit-tu=0 / rdoq-level=1 / dynamic-rd=2.00 / no-ssim-rd / signhide / no-tskip / nr-intra=0 / nr-inter=0 / no-constrained-intra / no-strong-intra-smoothing / max-merge=2 / limit-refs=0 / no-limit-modes / me=1 / subme=7 / merange=64 / temporal-mvp / weightp / weightb / no-analyze-src-pics / deblock=-3:-3 / no-sao / no-sao-non-deblock / rd=4 / no-early-skip / no-rskip / no-fast-intra / no-tskip-fast / no-cu-lossless / no-b-intra / no-splitrd-skip / rdpenalty=0 / psy-rd=1.75 / psy-rdoq=2.50 / no-rd-refine / analysis-reuse-mode=0 / no-lossless / cbqpoffs=0 / crqpoffs=0 / rc=crf / crf=22.0 / qcomp=0.80 / qpstep=6 / stats-write=0 / stats-read=0 / vbv-maxrate=50000 / vbv-bufsize=50000 / vbv-init=0.9 / crf-max=0.0 / crf-min=0.0 / ipratio=1.40 / pbratio=1.10 / aq-mode=1 / aq-strength=0.10 / no-cutree / zone-count=0 / no-strict-cbr / qg-size=32 / no-rc-grain / qpmax=69 / qpmin=0 / no-const-vbv / sar=1 / overscan=0 / videoformat=5 / range=0 / colorprim=2 / transfer=2 / colormatrix=2 / chromaloc=0 / display-window=0 / max-cll=0,0 / min-luma=0 / max-luma=1023 / log2-max-poc-lsb=8 / vui-timing-info / vui-hrd-info / slices=1 / opt-qp-pps / opt-ref-list-length-pps / no-multi-pass-opt-rps / scenecut-bias=0.05 / no-opt-cu-delta-qp / aq-motion / no-hdr / no-hdr-opt / no-dhdr10-opt / analysis-reuse-level=5 / scale-factor=0 / refine-intra=0 / refine-inter=0 / refine-mv=0 / no-limit-sao / ctu-info=0
Default : Yes
Forced : Yes
Audio #1
ID : 2
Format : DTS
Format/Info : Digital Theater Systems
Mode : 16
Format settings, Endianness : Big
Codec ID : A_DTS
Duration : 2 h 51 min
Bit rate mode : Constant
Bit rate : 1 509 kb/s
Channel(s) : 6 channels
Channel positions : Front: L C R, Side: L R, LFE
Sampling rate : 48.0 kHz
Frame rate : 93.750 FPS (512 SPF)
Bit depth : 16 bits
Compression mode : Lossy
Stream size : 1.81 GiB (12%)
Title : Dub [License]
Language : Russian
Default : Yes
Forced : No
Audio #2
ID : 3
Format : AC-3
Format/Info : Audio Coding 3
Format settings, Endianness : Big
Codec ID : A_AC3
Duration : 2 h 51 min
Bit rate mode : Constant
Bit rate : 448 kb/s
Channel(s) : 6 channels
Channel positions : Front: L C R, Side: L R, LFE
Sampling rate : 48.0 kHz
Frame rate : 31.250 FPS (1536 SPF)
Bit depth : 16 bits
Compression mode : Lossy
Stream size : 551 MiB (4%)
Title : Dub [LeDoyen Studio]
Language : Ukrainian
Service kind : Complete Main
Default : No
Forced : No
Audio #3
ID : 4
Format : DTS
Format/Info : Digital Theater Systems
Mode : 16
Format settings, Endianness : Big
Codec ID : A_DTS
Duration : 2 h 51 min
Bit rate mode : Constant
Bit rate : 1 509 kb/s
Channel(s) : 6 channels
Channel positions : Front: L C R, Side: L R, LFE
Sampling rate : 48.0 kHz
Frame rate : 93.750 FPS (512 SPF)
Bit depth : 24 bits
Compression mode : Lossy
Stream size : 1.81 GiB (12%)
Title : Original
Language : English
Default : No
Forced : No
Text #1
ID : 5
Format : UTF-8
Codec ID : S_TEXT/UTF8
Codec ID/Info : UTF-8 Plain Text
Duration : 2 h 40 min
Bit rate : 0 b/s
Count of elements : 27
Stream size : 931 Bytes (0%)
Title : Forced
Language : Russian
Default : Yes
Forced : No
Text #2
ID : 6
Format : UTF-8
Codec ID : S_TEXT/UTF8
Codec ID/Info : UTF-8 Plain Text
Duration : 2 h 42 min
Bit rate : 88 b/s
Count of elements : 1802
Stream size : 105 KiB (0%)
Title : Full
Language : Russian
Default : No
Forced : No
Text #3
ID : 7
Format : UTF-8
Codec ID : S_TEXT/UTF8
Codec ID/Info : UTF-8 Plain Text
Duration : 2 h 44 min
Bit rate : 97 b/s
Count of elements : 1832
Stream size : 117 KiB (0%)
Title : Full [Voronine]
Language : Russian
Default : No
Forced : No
Text #4
ID : 8
Format : UTF-8
Codec ID : S_TEXT/UTF8
Codec ID/Info : UTF-8 Plain Text
Duration : 2 h 7 min
Bit rate : 0 b/s
Count of elements : 11
Stream size : 321 Bytes (0%)
Title : Forced
Language : English
Default : No
Forced : No
Text #5
ID : 9
Format : UTF-8
Codec ID : S_TEXT/UTF8
Codec ID/Info : UTF-8 Plain Text
Duration : 2 h 42 min
Bit rate : 56 b/s
Count of elements : 1775
Stream size : 66.8 KiB (0%)
Title : Full
Language : English
Default : No
Forced : No
Text #6
ID : 10
Format : UTF-8
Codec ID : S_TEXT/UTF8
Codec ID/Info : UTF-8 Plain Text
Duration : 2 h 51 min
Bit rate : 57 b/s
Count of elements : 2159
Stream size : 72.5 KiB (0%)
Title : SDH
Language : English
Default : No
Forced : No
Menu
00:00:00.000 : :Chapter 01
00:09:20.518 : :Chapter 02
00:19:06.353 : :Chapter 03
00:31:27.969 : :Chapter 04
00:39:53.015 : :Chapter 05
00:52:32.941 : :Chapter 06
01:01:27.308 : :Chapter 07
01:12:16.874 : :Chapter 08
01:24:08.209 : :Chapter 09
01:34:50.476 : :Chapter 10
01:46:30.467 : :Chapter 11
01:55:37.889 : :Chapter 12
02:05:44.828 : :Chapter 13
02:15:52.060 : :Chapter 14
02:25:53.661 : :Chapter 15
02:35:45.252 : :Chapter 16
02:42:35.620 : :Chapter 17


   Похожие торренты   Торрент   Размер 
В этой теме нет новых непрочитанных сообщений. Облачный атлас / Cloud Atlas (2012) BDRip 1080p | D, A, | Open Matte

38 | 4

10.8 ГБ

В этой теме нет новых непрочитанных сообщений. Неудержимые 2 / The Expendables 2 (2012) BDRip-HEVC 1080p от HEVC-CLUB | D

0 | 0

6.88 ГБ

В этой теме нет новых непрочитанных сообщений. Экипаж / Flight (2012) BDRip-HEVC 1080p от HEVC-CLUB | D, P2, A

0 | 0

9.97 ГБ

В этой теме нет новых непрочитанных сообщений. Август. Восьмого (2012) BDRip-HEVC 1080p от HEVC-CLUB

0 | 0

12.95 ГБ

В этой теме нет новых непрочитанных сообщений. Мерлин / Merlin [S01-05] (2008-2012) BDRip-HEVC 1080p от HEVC-CLUB | P

3 | 10

133.01 ГБ

В этой теме нет новых непрочитанных сообщений. Джек Ричер / Jack Reacher (2012) BDRip-HEVC 1080p от HEVC-CLUB | D, A

0 | 0

11.94 ГБ

В этой теме нет новых непрочитанных сообщений. Красные огни / Red Lights (2012) BDRip-HEVC 1080p от HEVC-CLUB | D| GER Transfer

0 | 0

8.71 ГБ




Вы не можете начинать темы
Вы не можете отвечать на сообщения
Вы не можете редактировать свои сообщения
Вы не можете удалять свои сообщения
Вы не можете добавлять вложения

Перейти:  
Контактная информация: rstracker[пёсик]yandex.ru
 Вход
ppkBB3cker v.2 © 2008-2014 @ PPK
[ Time : 0.041s | 18 Queries | GZIP : Off ]

cron