img image001 image001 image001 image001 image001 image001 image001 image001 image001 image001 image001 image001 image001 image001 image001 image001

Planets Sun Sun Sun
Статистика раздачи
Автор: Nickolas3434 | Размер: 5.38 ГБ | Добавлен: 25 дек 2017
Раздают: 58    Качают: 4
Скачать торрент
Скачать торрент
Описание торрента

СообщениеДобавлено: 25 дек 2017 

Информация о фильме
Название: Эффект бабочки
Оригинальное название: The Butterfly Effect
Год выхода: 2004
Жанр: фантастика, триллер, драма, детектив
Режиссер: Эрик Бресс, Дж. Макки Грубер
В ролях: Эштон Катчер, Эми Смарт, Мелора Уолтерс, Элден Хенсон, Уильям Ли Скотт, Джон Патрик Амедори, Ирен Горовая, Кевин Шмидт, Джесси Джеймс, Логан Лерман
О фильме:
Мальчик Эван перенял от своего отца-психопата, ныне запертого в доме для умалишённых, странную болезнь — он не помнит некоторых эпизодов своей жизни, причем в эти моменты происходили довольно странные, а то и ужасные, события. Возмужав и поступив в колледж, Эван делает удивительное открытие. Читая дневники, которые он писал в детстве по совету врача, Эван может возвращаться в детство и своими действиями изменять будущее.

Страна: США, Канада
Продолжительность: 01:59:37
Перевод: Профессиональный (дублированный со вставками Tycoon'а на непереведённые места)
Файл
Кодек: HEVC x265 10 bit
Качество: BDRip-HEVC 1080p
Видео: 1920x1080 (16:9), 5602 Кбит/сек, 0.113 бит/(Пиксели*Кадры), 23.976 (24000/1001) кадр/сек, HEVC (Main10@L.5.1@High) 10 бит
Звук:
Русская, AC3, 384 kb/s, Front: L C R, Side: L R, LFE, 48.0 kHz (Дубляж)
Английская, AC3, 448 kb/s, Front: L C R, Side: L R, LFE, 48.0 kHz (Оригинал)
Субтитры: Русские, английские
Разделение по главам: есть
Семпл
General
Unique ID : 199605719981274896142753792486628194466 (0x962AA9CF3A3F15978F734F2EFB4CF8A2)
Complete name : H:HEVC 210 BITButterfly EffectThe Butterfly Effect_2004_[Directors Cut]_BDRip_1080p_[HEVC]_10bit.mkv
Format : Matroska
Format version : Version 4 / Version 2
File size : 5.38 GiB
Duration : 1 h 59 min
Overall bit rate : 6 437 kb/s
Encoded date : UTC 2017-12-24 16:17:56
Writing application : mkvmerge v18.0.0 ('Apricity') 64-bit
Writing library : libebml v1.3.5 + libmatroska v1.4.8
Cover : Yes
Attachments : cover.png
Video
ID : 1
Format : HEVC
Format/Info : High Efficiency Video Coding
Format profile : Main 10@L5.1@High
Codec ID : V_MPEGH/ISO/HEVC
Duration : 1 h 59 min
Bit rate : 5 602 kb/s
Width : 1 920 pixels
Height : 1 080 pixels
Display aspect ratio : 16:9
Frame rate mode : Constant
Frame rate : 23.976 (24000/1001) FPS
Original frame rate : 23.976 (23976/1000) FPS
Color space : YUV
Chroma subsampling : 4:2:0
Bit depth : 10 bits
Bits/(Pixel*Frame) : 0.113
Stream size : 4.68 GiB (87%)
Writing library : x265 2.5+20-0967d0add97e:[Windows][GCC 7.2.0][64 bit] 10bit
Encoding settings : cpuid=1173503 / frame-threads=4 / numa-pools=16 / wpp / no-pmode / no-pme / no-psnr / no-ssim / log-level=2 / input-csp=1 / input-res=1920x1080 / interlace=0 / total-frames=0 / level-idc=51 / high-tier=1 / uhd-bd=0 / ref=5 / no-allow-non-conformance / no-repeat-headers / annexb / no-aud / no-hrd / info / hash=0 / no-temporal-layers / open-gop / min-keyint=23 / keyint=240 / bframes=6 / b-adapt=2 / no-b-pyramid / bframe-bias=0 / rc-lookahead=40 / lookahead-slices=4 / scenecut=40 / no-intra-refresh / ctu=64 / min-cu-size=8 / no-rect / no-amp / max-tu-size=32 / tu-inter-depth=3 / tu-intra-depth=3 / limit-tu=4 / rdoq-level=2 / dynamic-rd=0.00 / no-ssim-rd / signhide / no-tskip / nr-intra=0 / nr-inter=0 / no-constrained-intra / no-strong-intra-smoothing / max-merge=2 / limit-refs=3 / no-limit-modes / me=3 / subme=7 / merange=57 / temporal-mvp / weightp / weightb / no-analyze-src-pics / deblock=-1:-1 / no-sao / no-sao-non-deblock / rd=4 / no-early-skip / rskip / no-fast-intra / no-tskip-fast / no-cu-lossless / no-b-intra / no-splitrd-skip / rdpenalty=0 / psy-rd=2.00 / psy-rdoq=1.00 / no-rd-refine / analysis-reuse-mode=0 / no-lossless / cbqpoffs=0 / crqpoffs=0 / rc=crf / crf=19.0 / qcomp=0.60 / qpstep=4 / stats-write=0 / stats-read=0 / vbv-maxrate=160000 / vbv-bufsize=160000 / vbv-init=0.9 / crf-max=0.0 / crf-min=0.0 / ipratio=1.40 / pbratio=1.30 / aq-mode=1 / aq-strength=0.50 / cutree / zone-count=1 / zones: / start-frame=163855 / end-frame=172078 / qp=35 / no-strict-cbr / qg-size=32 / no-rc-grain / qpmax=51 / qpmin=0 / no-const-vbv / sar=0 / overscan=0 / videoformat=5 / range=0 / colorprim=2 / transfer=2 / colormatrix=1 / chromaloc=0 / display-window=0 / max-cll=0,0 / min-luma=0 / max-luma=1023 / log2-max-poc-lsb=8 / vui-timing-info / vui-hrd-info / slices=1 / opt-qp-pps / opt-ref-list-length-pps / no-multi-pass-opt-rps / scenecut-bias=0.05 / no-opt-cu-delta-qp / no-aq-motion / no-hdr / no-hdr-opt / no-dhdr10-opt / analysis-reuse-level=5 / scale-factor=0 / refine-intra=0 / refine-inter=0 / refine-mv=0 / no-limit-sao / ctu-info=0
Default : Yes
Forced : Yes
Color range : Limited
Matrix coefficients : BT.709
Audio #1
ID : 2
Format : AC-3
Format/Info : Audio Coding 3
Format settings, Endianness : Big
Codec ID : A_AC3
Duration : 1 h 59 min
Bit rate mode : Constant
Bit rate : 384 kb/s
Channel(s) : 6 channels
Channel positions : Front: L C R, Side: L R, LFE
Sampling rate : 48.0 kHz
Frame rate : 31.250 FPS (1536 SPF)
Bit depth : 16 bits
Compression mode : Lossy
Stream size : 329 MiB (6%)
Title : Дубляж
Language : Russian
Service kind : Complete Main
Default : Yes
Forced : No
Audio #2
ID : 3
Format : AC-3
Format/Info : Audio Coding 3
Format settings, Endianness : Big
Codec ID : A_AC3
Duration : 1 h 59 min
Bit rate mode : Constant
Bit rate : 448 kb/s
Channel(s) : 6 channels
Channel positions : Front: L C R, Side: L R, LFE
Sampling rate : 48.0 kHz
Frame rate : 31.250 FPS (1536 SPF)
Bit depth : 16 bits
Compression mode : Lossy
Stream size : 383 MiB (7%)
Title : Оригинал
Language : English
Service kind : Complete Main
Default : No
Forced : No
Text #1
ID : 4
Format : UTF-8
Codec ID : S_TEXT/UTF8
Codec ID/Info : UTF-8 Plain Text
Duration : 1 h 53 min
Bit rate : 85 b/s
Count of elements : 1510
Stream size : 70.6 KiB (0%)
Language : Russian
Default : Yes
Forced : No
Text #2
ID : 5
Format : UTF-8
Codec ID : S_TEXT/UTF8
Codec ID/Info : UTF-8 Plain Text
Duration : 1 h 52 min
Bit rate : 56 b/s
Count of elements : 1609
Stream size : 46.8 KiB (0%)
Language : English
Default : No
Forced : No
Menu
00:00:00.000 : en:The Beginning
00:06:27.470 : en:Two Fathers
00:11:15.883 : en:Six Years Later
00:14:44.715 : en:No Memory
00:22:46.990 : en:The Junkyard
00:26:48.605 : en:Seven Years Later
00:30:13.435 : en:Opening Up the Past
00:38:51.954 : en:Dinner Talk
00:44:14.485 : en:Unwanted Memories
00:49:05.943 : en:Healing Scars
00:54:34.103 : en:Fraternity Life
01:02:37.003 : en:A Special Night
01:09:45.805 : en:Incarcerated
01:16:06.603 : en:Breakout
01:20:25.654 : en:Day of Atonement
01:27:33.957 : en:Kayleigh Hears the Truth
01:33:59.759 : en:Sacrifices
01:36:22.609 : en:Saving Mom
01:47:11.298 : en:Institutionalized
01:51:01.863 : en:Final Solution
01:53:54.828 : en:End Credits
01:59:36.877 : en:

Релиз от: от XuMuK



   Похожие торренты   Торрент   Размер 
В этой теме нет новых непрочитанных сообщений. Эффект бабочки / The Butterfly Effect (2004) BDRip-HEVC 1080p от ХиМиК | D | Театральная версия

18 | 0

4.59 ГБ

В этой теме нет новых непрочитанных сообщений. Эффект бабочки / The Butterfly Effect (2004) HDRip от Scarabey | Р2 | Режиссерская версия

115 | 15

796.35 МБ

В этой теме нет новых непрочитанных сообщений. Эффект бабочки / The Butterfly Effect (2003) BDRip 720p | Режиссёрская версия | D, P2, A

18 | 1

9.82 ГБ

В этой теме нет новых непрочитанных сообщений. Эффект бабочки / The Butterfly Effect (2004) BDRip 720p от HELLYWOOD | Teatrical Cut / Театральная версия

92 | 18

7.62 ГБ

В этой теме нет новых непрочитанных сообщений. Эффект бабочки / The Butterfly Effect (2004) BDRemux 1080p | D, P2, A | Director's Cut

14 | 12

22.46 ГБ

В этой теме нет новых непрочитанных сообщений. Эффект бабочки / The Butterfly Effect (2004) BDRip от MediaClub | КПК | Director's cut

106 | 10

544.63 МБ

В этой теме нет новых непрочитанных сообщений. Эффект бабочки / The Butterfly Effect (2004) HDRip от Scarabey | D

1190 | 84

1.45 ГБ




Вы не можете начинать темы
Вы не можете отвечать на сообщения
Вы не можете редактировать свои сообщения
Вы не можете удалять свои сообщения
Вы не можете добавлять вложения

Перейти:  
 Вход
ppkBB3cker v.2 © 2008-2014 @ PPK
[ Time : 0.033s | 15 Queries | GZIP : Off ]

cron