img image001 image001 image001 image001 image001 image001 image001 image001 image001 image001 image001 image001 image001 image001 image001

Planets Sun Sun Sun
Статистика раздачи
Автор: Nickolas3434 | Размер: 28.52 ГБ | Добавлен: 29 дек 2017
Раздают: 204    Качают: 28
Скачать торрент
Скачать торрент
Описание торрента

СообщениеДобавлено: 29 дек 2017 

Информация о фильме
Название: Kingsman: Золотое кольцо
Оригинальное название: Kingsman: The Golden Circle
Год выхода: 2017
Жанр: Драма, боевик, военный
Режиссер: Мэттью Вон
В ролях: Колин Фёрт, Тэрон Эджертон, Эдвард Холкрофт, Гордон Александр, Марк Стронг, Ханна Альстрём, Кэлвин Демба, Томас Тургус, Тоби Бакаре, Джулианна Мур
О фильме:
Когда штаб-квартиры секретной службы Kingsman уничтожены, и весь мир оказался в заложниках у неизвестных, британские суперагенты обнаруживают, что в один день вместе с их организацией была еще создана американская разведка — Statesman. Теперь эти две элитные спецслужбы должны объединиться и бросить вызов общему безжалостному врагу, чтобы спасти мир, то есть заняться тем, что для Эггси становится обычным делом…

Страна: Великобритания, США
Студия: 20th Century Fox Film Corporation, Marv Films, Shangri-La Entertainment, TSG Entertainment
Продолжительность: 02:21:02
Перевод: Дублированный | iTunes
Файл
Качество: BDRemux 1080p
Видео: MPEG-4 AVC, 1920x1080, 23.4 Mbit/s, 23.976 fps
Звук:
Аудио #01: 48 kHz, AC3, 5.1, 384 Kbps | Дублированный | iTunes | RUS |
Аудио #02: 48 kHz, DTS, 7.1, 5129 Kbps | Оригинал | ENG |
Субтитры: Русские (forced, full), английские

General
Unique ID : 12010087710585222645417098382589472437 (0x9090F0A9C497966FA86AAB0C956AEB5)
Complete name : G:VideoSSDKingsman.The.Golden.Circle.2017.BDREMUX.1080p.ExKinoRay.mkv
Format : Matroska
Format version : Version 4 / Version 2
File size : 28.5 GiB
Duration : 2 h 21 min
Overall bit rate mode : Variable
Overall bit rate : 29.0 Mb/s
Movie name : Kingsman: The Golden Circle 2017 from ExKinoRay
Encoded date : UTC 2017-12-28 19:35:23
Writing application : mkvmerge v19.0.0 ('Brave Captain') 64-bit
Writing library : libebml v1.3.5 + libmatroska v1.4.8
Video
ID : 1
Format : AVC
Format/Info : Advanced Video Codec
Format profile : High@L4.1
Format settings : CABAC / 4 Ref Frames
Format settings, CABAC : Yes
Format settings, ReFrames : 4 frames
Codec ID : V_MPEG4/ISO/AVC
Duration : 2 h 21 min
Bit rate mode : Variable
Bit rate : 23.4 Mb/s
Maximum bit rate : 37.0 Mb/s
Width : 1 920 pixels
Height : 1 080 pixels
Display aspect ratio : 16:9
Frame rate mode : Constant
Frame rate : 23.976 (24000/1001) FPS
Color space : YUV
Chroma subsampling : 4:2:0
Bit depth : 8 bits
Scan type : Progressive
Bits/(Pixel*Frame) : 0.471
Stream size : 23.1 GiB (81%)
Language : English
Default : Yes
Forced : No
Audio #1
ID : 2
Format : AC-3
Format/Info : Audio Coding 3
Codec ID : A_AC3
Duration : 2 h 21 min
Bit rate mode : Constant
Bit rate : 384 kb/s
Channel(s) : 6 channels
Channel positions : Front: L C R, Side: L R, LFE
Sampling rate : 48.0 kHz
Frame rate : 31.250 FPS (1536 SPF)
Bit depth : 16 bits
Compression mode : Lossy
Stream size : 387 MiB (1%)
Title : iTunes
Language : Russian
Service kind : Complete Main
Default : Yes
Forced : No
Audio #2
ID : 3
Format : DTS
Format/Info : Digital Theater Systems
Format profile : MA / Core
Codec ID : A_DTS
Duration : 2 h 21 min
Bit rate mode : Variable / Constant
Bit rate : 5 129 kb/s / 1 509 kb/s
Channel(s) : 8 channels / 6 channels
Channel positions : Front: L C R, Side: L R, Back: L R, LFE / Front: L C R, Side: L R, LFE
Sampling rate : 48.0 kHz
Frame rate : 93.750 FPS (512 SPF)
Bit depth : 24 bits
Compression mode : Lossless / Lossy
Stream size : 5.05 GiB (18%)
Title : Original
Language : English
Default : No
Forced : No
Text #1
ID : 4
Format : UTF-8
Codec ID : S_TEXT/UTF8
Codec ID/Info : UTF-8 Plain Text
Duration : 2 h 19 min
Bit rate : 0 b/s
Count of elements : 14
Stream size : 418 Bytes (0%)
Title : Forced
Language : Russian
Default : Yes
Forced : No
Text #2
ID : 5
Format : UTF-8
Codec ID : S_TEXT/UTF8
Codec ID/Info : UTF-8 Plain Text
Duration : 2 h 13 min
Bit rate : 91 b/s
Count of elements : 1847
Stream size : 89.3 KiB (0%)
Title : Full
Language : Russian
Default : No
Forced : No
Text #3
ID : 6
Format : UTF-8
Codec ID : S_TEXT/UTF8
Codec ID/Info : UTF-8 Plain Text
Duration : 2 h 13 min
Bit rate : 55 b/s
Count of elements : 1882
Stream size : 54.2 KiB (0%)
Title : Full
Language : English
Default : No
Forced : No
Text #4
ID : 7
Format : UTF-8
Codec ID : S_TEXT/UTF8
Codec ID/Info : UTF-8 Plain Text
Duration : 2 h 13 min
Bit rate : 60 b/s
Count of elements : 2142
Stream size : 58.8 KiB (0%)
Title : SDH
Language : English
Default : No
Forced : No
Menu
00:00:00.000 : en:Chapter 01
00:04:51.958 : en:Chapter 02
00:09:39.454 : en:Chapter 03
00:13:36.607 : en:Chapter 04
00:18:54.300 : en:Chapter 05
00:24:57.287 : en:Chapter 06
00:28:43.347 : en:Chapter 07
00:32:52.304 : en:Chapter 08
00:39:18.731 : en:Chapter 09
00:43:21.849 : en:Chapter 10
00:48:26.570 : en:Chapter 11
00:53:54.106 : en:Chapter 12
00:58:31.258 : en:Chapter 13
01:05:04.901 : en:Chapter 14
01:09:52.522 : en:Chapter 15
01:13:34.744 : en:Chapter 16
01:19:41.860 : en:Chapter 17
01:23:45.103 : en:Chapter 18
01:28:55.288 : en:Chapter 19
01:33:25.225 : en:Chapter 20
01:40:14.759 : en:Chapter 21
01:45:03.255 : en:Chapter 22
01:49:38.489 : en:Chapter 23
01:55:15.992 : en:Chapter 24
02:01:40.835 : en:Chapter 25
02:05:44.036 : en:Chapter 26
02:12:36.407 : en:Chapter 27
02:15:15.274 : en:Chapter 28

Релиз от: Автор релиза:
Подпишись на меня, кликни по картинке > :



   Похожие торренты   Торрент   Размер 
В этой теме нет новых непрочитанных сообщений. Kingsman: Золотое кольцо / Kingsman: The Golden Circle (2017) UHD BDRemux 2160p от ExKinoRay | 4K | HDR | iTunes

0 | 0

47.67 ГБ

В этой теме нет новых непрочитанных сообщений. Kingsman: Золотое кольцо / Kingsman: The Golden Circle (2017) UHD BDRemux 2160p от ExKinoRay | 4K | HDR | iTunes

111 | 51

41.89 ГБ

В этой теме нет новых непрочитанных сообщений. Kingsman: Золотое кольцо / Kingsman: The Golden Circle (2017) BDRip 1080p от ExKinoRay | iTunes

1129 | 59

11.72 ГБ

В этой теме нет новых непрочитанных сообщений. Kingsman: Золотое кольцо / Kingsman: The Golden Circle (2017) BDRip от ExKinoRay | iTunes

201 | 5

2.12 ГБ

В этой теме нет новых непрочитанных сообщений. Kingsman: Золотое кольцо / Kingsman: The Golden Circle (2017) BDRip от ExKinoRay | iTunes

376 | 17

1.46 ГБ

В этой теме нет новых непрочитанных сообщений. Kingsman: Золотое кольцо / Kingsman: The Golden Circle (2017) BDRip-AVC от ExKinoRay | iTunes

168 | 6

2.92 ГБ

В этой теме нет новых непрочитанных сообщений. Kingsman: Золотое кольцо / Kingsman: The Golden Circle (2017) BDRemux 1080p | D, A | Лицензия

0 | 0

33.03 ГБ




Вы не можете начинать темы
Вы не можете отвечать на сообщения
Вы не можете редактировать свои сообщения
Вы не можете удалять свои сообщения
Вы не можете добавлять вложения

Перейти:  
Для Мосгорсуда, Роскомнадзора и рекламодателей: mosgorsud-torrent[собачка]yandex.ru
 Вход
ppkBB3cker v.2 © 2008-2014 @ PPK
[ Time : 0.062s | 19 Queries | GZIP : Off ]

cron