img image001 image001 image001 image001 image001 image001 image001 image001 image001 image001 image001 image001 image001 image001 image001 image001

Planets Sun Sun Sun
Статистика раздачи
Автор: Nickolas3434 | Размер: 4.37 ГБ | Добавлен: 06 янв 2018
Раздают: 12    Качают: 0
Скачать торрент
Скачать торрент
Описание торрента

СообщениеДобавлено: 06 янв 2018 

Информация о фильме
Название: Кровавый ручей
Оригинальное название: Blood Creek
Год выхода: 2009
Жанр: Ужасы, мистика, триллер
Режиссер: Джоэл Шумахер
В ролях: Генри Кавилл, Доминик Пурселл, Эмма Бут, Майкл Фассбендер, Рэйнер Винкелвосс, Ласло Матраи, Джой МакБринн, Ши Уигхэм, Энтони Бэргер, Дуглас Роджер и др.
О фильме:
В 30-е годы ХХ века в ближайшем окружении Гитлера было создано общество, целью которого было изучение оккультных наук. Разосланные Гитлером агенты обшаривали каждую пядь земли в поисках древних артефактов, которые могли указать путь к величайшей загадке — бессмертию. Одними из таких артефактов были так называемые Рунные Камни… Они были найдены… Но не смогут ли отголоски тех событий вылиться в катастрофу в наши дни?

Страна: США
Студия: Gold Circle Films
Продолжительность: 01:30:11
Перевод: Любительский (одноголосый, закадровый) zamez
Файл
Кодек: х.264
Качество: BDRip 720p
Видео: AVC, 1280x546 (2.35:1), 24 fps, 6 044 Kbps (0.360 bit/pixel)
Звук:
Аудио #1: AC-3, 48.0 KHz, 6 ch, 448 Kbps, CBR (Russian)
Аудио #2: AC-3, 48.0 KHz, 6 ch, 448 Kbps, CBR (English)
Субтитры: English
Скриншоты:

Релиз: &
Полное имя : D:ФИЛЬМЫКровавый ручей.2009 (Г.Кавилл, М.Фассбендер).k.e.n & MegaPeer.mkv
Формат : Matroska
Версия формата : Version 2
Размер файла : 4,37 Гбайт
Продолжительность : 1 ч. 30 м.
Общий поток : 6931 Кбит/сек
Дата кодирования : UTC 2018-01-01 07:54:57
Программа кодирования : mkvmerge v5.3.0 ('I could have danced') built on Feb 9 2012 10:38:07
Библиотека кодирования : libebml v1.2.3 + libmatroska v1.3.0
Attachments : poster (6).jpg
Видео
Идентификатор : 1
Формат : AVC
Формат/Информация : Advanced Video Codec
Профиль формата : High@L4.1
Параметр CABAC формата : Да
Параметр ReFrames формата : 11 кадров
Идентификатор кодека : V_MPEG4/ISO/AVC
Продолжительность : 1 ч. 30 м.
Битрейт : 6044 Кбит/сек
Ширина : 1280 пикселей
Высота : 546 пикселей
Соотношение сторон : 2,35:1
Режим частоты кадров : Постоянный
Частота кадров : 24,000 кадра/сек
Цветовое пространство : YUV
Субдискретизация насыщенности : 4:2:0
Битовая глубина : 8 бит
Тип развёртки : Прогрессивная
Бит/(Пиксели*Кадры) : 0.360
Размер потока : 3,72 Гбайт (85%)
Библиотека кодирования : x264 core 146 r2538 121396c
Настройки программы : cabac=1 / ref=11 / deblock=1:-3:-3 / analyse=0x3:0x133 / me=umh / subme=11 / psy=1 / psy_rd=1.00:0.10 / mixed_ref=1 / me_range=32 / chroma_me=1 / trellis=2 / 8x8dct=1 / cqm=0 / deadzone=21,11 / fast_pskip=0 / chroma_qp_offset=-3 / threads=12 / lookahead_threads=3 / sliced_threads=0 / nr=0 / decimate=0 / interlaced=0 / bluray_compat=0 / constrained_intra=0 / bframes=11 / b_pyramid=2 / b_adapt=2 / b_bias=0 / direct=3 / weightb=1 / open_gop=0 / weightp=2 / keyint=240 / keyint_min=23 / scenecut=40 / intra_refresh=0 / rc=2pass / mbtree=0 / bitrate=6044 / ratetol=1.0 / qcomp=0.60 / qpmin=0 / qpmax=69 / qpstep=4 / cplxblur=20.0 / qblur=0.5 / ip_ratio=1.40 / pb_ratio=1.30 / aq=3:1.10
Язык : English
Default : Да
Forced : Нет
Аудио #1
Идентификатор : 2
Формат : AC-3
Формат/Информация : Audio Coding 3
Расширение режима : CM (complete main)
Параметр Endianness формата : Big
Идентификатор кодека : A_AC3
Продолжительность : 1 ч. 30 м.
Вид битрейта : Постоянный
Битрейт : 448 Кбит/сек
Каналы : 6 каналов
Расположение каналов : Front: L C R, Side: L R, LFE
Частота : 48,0 КГц
Частота кадров : 31,250 кадров/сек (1536 spf)
Битовая глубина : 16 бит
Метод сжатия : С потерями
Размер потока : 289 Мбайт (6%)
Заголовок : VO [zamez]
Язык : Russian
Default : Да
Forced : Нет
Аудио #2
Идентификатор : 3
Формат : AC-3
Формат/Информация : Audio Coding 3
Расширение режима : CM (complete main)
Параметр Endianness формата : Big
Идентификатор кодека : A_AC3
Продолжительность : 1 ч. 30 м.
Вид битрейта : Постоянный
Битрейт : 448 Кбит/сек
Каналы : 6 каналов
Расположение каналов : Front: L C R, Side: L R, LFE
Частота : 48,0 КГц
Частота кадров : 31,250 кадров/сек (1536 spf)
Битовая глубина : 16 бит
Метод сжатия : С потерями
Размер потока : 289 Мбайт (6%)
Язык : English
Default : Нет
Forced : Нет
Текст
Идентификатор : 4
Формат : UTF-8
Идентификатор кодека : S_TEXT/UTF8
Идентификатор кодека/Информация : UTF-8 Plain Text
Язык : English
Default : Нет
Forced : Нет
Меню
00:00:00.000 : en:00:00:00.000
00:10:30.375 : en:00:10:30.375
00:20:05.667 : en:00:20:05.667
00:34:26.875 : en:00:34:26.875
00:42:10.000 : en:00:42:10.000
00:52:21.458 : en:00:52:21.458
01:02:14.750 : en:01:02:14.750
01:08:33.667 : en:01:08:33.667
01:13:46.167 : en:01:13:46.167
01:19:41.167 : en:01:19:41.167
01:21:53.917 : en:01:21:53.917
01:24:01.458 : en:01:24:01.458



   Похожие торренты   Торрент   Размер 
В этой теме нет новых непрочитанных сообщений. Кровавый ручей / Blood Creek (2009) BDRemux 1080р | L1

6 | 1

15.06 ГБ

В этой теме нет новых непрочитанных сообщений. Дьявольский особняк / Поместье Холодный ручей / Cold Creek Manor (2003) BDRip 720p | P

56 | 39

4.23 ГБ

В этой теме нет новых непрочитанных сообщений. Дьявольский особняк / Поместье Холодный ручей / Cold Creek Manor (2003) BDRip-AVC от Rulya74

141 | 33

1.45 ГБ

В этой теме нет новых непрочитанных сообщений. Жестокий ручей / Mean Creek (2004) WEB-DL 1080p | P2

0 | 0

3.75 ГБ

В этой теме нет новых непрочитанных сообщений. Французов ручей / Frenchman's Creek (1944) DVDRip

7 | 3

1.62 ГБ

В этой теме нет новых непрочитанных сообщений. Кровавый Парень / Blood Lad [TV] [01-10 из 10] (2013) BDRip 720p | AniFilm

145 | 38

6.42 ГБ

В этой теме нет новых непрочитанных сообщений. Кровавый Парень / Blood Lad [OVA] (2013) BDRip 720p | AniFilm

29 | 8

504.47 МБ




Вы не можете начинать темы
Вы не можете отвечать на сообщения
Вы не можете редактировать свои сообщения
Вы не можете удалять свои сообщения
Вы не можете добавлять вложения

Перейти:  
 Вход
ppkBB3cker v.2 © 2008-2014 @ PPK
[ Time : 0.041s | 16 Queries | GZIP : Off ]

cron